  0
SECTION
  2
HEADER
  9
$ACADVER
  1
AC1015
  9
$ACADMAINTVER
 70
     6
  9
$DWGCODEPAGE
  3
ANSI_1252
  9
$INSBASE
 10
0.0
 20
0.0
 30
0.0
  9
$EXTMIN
 10
0.0
 20
0.0
 30
0.0
  9
$EXTMAX
 10
297.0000000000001
 20
210.0000000000001
 30
0.0
  9
$LIMMIN
 10
0.0
 20
0.0
  9
$LIMMAX
 10
12.0
 20
9.0
  9
$ORTHOMODE
 70
     0
  9
$REGENMODE
 70
     1
  9
$FILLMODE
 70
     1
  9
$QTEXTMODE
 70
     0
  9
$MIRRTEXT
 70
     1
  9
$LTSCALE
 40
1.0
  9
$ATTMODE
 70
     1
  9
$TEXTSIZE
 40
0.2
  9
$TRACEWID
 40
0.05
  9
$TEXTSTYLE
  7
Standard
  9
$CLAYER
  8
0
  9
$CELTYPE
  6
ByLayer
  9
$CECOLOR
 62
   256
  9
$CELTSCALE
 40
1.0
  9
$DISPSILH
 70
     0
  9
$DIMSCALE
 40
1.0
  9
$DIMASZ
 40
0.18
  9
$DIMEXO
 40
0.0625
  9
$DIMDLI
 40
0.38
  9
$DIMRND
 40
0.0
  9
$DIMDLE
 40
0.0
  9
$DIMEXE
 40
0.18
  9
$DIMTP
 40
0.0
  9
$DIMTM
 40
0.0
  9
$DIMTXT
 40
0.18
  9
$DIMCEN
 40
0.09
  9
$DIMTSZ
 40
0.0
  9
$DIMTOL
 70
     0
  9
$DIMLIM
 70
     0
  9
$DIMTIH
 70
     1
  9
$DIMTOH
 70
     1
  9
$DIMSE1
 70
     0
  9
$DIMSE2
 70
     0
  9
$DIMTAD
 70
     0
  9
$DIMZIN
 70
     0
  9
$DIMBLK
  1

  9
$DIMASO
 70
     1
  9
$DIMSHO
 70
     1
  9
$DIMPOST
  1

  9
$DIMAPOST
  1

  9
$DIMALT
 70
     0
  9
$DIMALTD
 70
     2
  9
$DIMALTF
 40
25.4
  9
$DIMLFAC
 40
1.0
  9
$DIMTOFL
 70
     0
  9
$DIMTVP
 40
0.0
  9
$DIMTIX
 70
     0
  9
$DIMSOXD
 70
     0
  9
$DIMSAH
 70
     0
  9
$DIMBLK1
  1

  9
$DIMBLK2
  1

  9
$DIMSTYLE
  2
Standard
  9
$DIMCLRD
 70
     0
  9
$DIMCLRE
 70
     0
  9
$DIMCLRT
 70
     0
  9
$DIMTFAC
 40
1.0
  9
$DIMGAP
 40
0.09
  9
$DIMJUST
 70
     0
  9
$DIMSD1
 70
     0
  9
$DIMSD2
 70
     0
  9
$DIMTOLJ
 70
     1
  9
$DIMTZIN
 70
     0
  9
$DIMALTZ
 70
     0
  9
$DIMALTTZ
 70
     0
  9
$DIMUPT
 70
     0
  9
$DIMDEC
 70
     4
  9
$DIMTDEC
 70
     4
  9
$DIMALTU
 70
     2
  9
$DIMALTTD
 70
     2
  9
$DIMTXSTY
  7
Standard
  9
$DIMAUNIT
 70
     0
  9
$DIMADEC
 70
     0
  9
$DIMALTRND
 40
0.0
  9
$DIMAZIN
 70
     0
  9
$DIMDSEP
 70
    46
  9
$DIMATFIT
 70
     3
  9
$DIMFRAC
 70
     0
  9
$DIMLDRBLK
  1

  9
$DIMLUNIT
 70
     2
  9
$DIMLWD
 70
    -2
  9
$DIMLWE
 70
    -2
  9
$DIMTMOVE
 70
     0
  9
$LUNITS
 70
     2
  9
$LUPREC
 70
     4
  9
$SKETCHINC
 40
0.1
  9
$FILLETRAD
 40
0.5
  9
$AUNITS
 70
     0
  9
$AUPREC
 70
     0
  9
$MENU
  1
.
  9
$ELEVATION
 40
0.0
  9
$PELEVATION
 40
0.0
  9
$THICKNESS
 40
0.0
  9
$LIMCHECK
 70
     0
  9
$CHAMFERA
 40
0.5
  9
$CHAMFERB
 40
0.5
  9
$CHAMFERC
 40
1.0
  9
$CHAMFERD
 40
0.0
  9
$SKPOLY
 70
     0
  9
$TDCREATE
 40
2456997.490970081
  9
$TDUCREATE
 40
2456997.449303414
  9
$TDUPDATE
 40
2456997.49097044
  9
$TDUUPDATE
 40
2456997.449303773
  9
$TDINDWG
 40
0.0000000116
  9
$TDUSRTIMER
 40
0.0000000116
  9
$USRTIMER
 70
     1
  9
$ANGBASE
 50
0.0
  9
$ANGDIR
 70
     0
  9
$PDMODE
 70
     0
  9
$PDSIZE
 40
0.0
  9
$PLINEWID
 40
0.0
  9
$SPLFRAME
 70
     0
  9
$SPLINETYPE
 70
     6
  9
$SPLINESEGS
 70
     8
  9
$HANDSEED
  5
4E0
  9
$SURFTAB1
 70
     6
  9
$SURFTAB2
 70
     6
  9
$SURFTYPE
 70
     6
  9
$SURFU
 70
     6
  9
$SURFV
 70
     6
  9
$UCSBASE
  2

  9
$UCSNAME
  2

  9
$UCSORG
 10
0.0
 20
0.0
 30
0.0
  9
$UCSXDIR
 10
1.0
 20
0.0
 30
0.0
  9
$UCSYDIR
 10
0.0
 20
1.0
 30
0.0
  9
$UCSORTHOREF
  2

  9
$UCSORTHOVIEW
 70
     0
  9
$UCSORGTOP
 10
0.0
 20
0.0
 30
0.0
  9
$UCSORGBOTTOM
 10
0.0
 20
0.0
 30
0.0
  9
$UCSORGLEFT
 10
0.0
 20
0.0
 30
0.0
  9
$UCSORGRIGHT
 10
0.0
 20
0.0
 30
0.0
  9
$UCSORGFRONT
 10
0.0
 20
0.0
 30
0.0
  9
$UCSORGBACK
 10
0.0
 20
0.0
 30
0.0
  9
$PUCSBASE
  2

  9
$PUCSNAME
  2

  9
$PUCSORG
 10
0.0
 20
0.0
 30
0.0
  9
$PUCSXDIR
 10
1.0
 20
0.0
 30
0.0
  9
$PUCSYDIR
 10
0.0
 20
1.0
 30
0.0
  9
$PUCSORTHOREF
  2

  9
$PUCSORTHOVIEW
 70
     0
  9
$PUCSORGTOP
 10
0.0
 20
0.0
 30
0.0
  9
$PUCSORGBOTTOM
 10
0.0
 20
0.0
 30
0.0
  9
$PUCSORGLEFT
 10
0.0
 20
0.0
 30
0.0
  9
$PUCSORGRIGHT
 10
0.0
 20
0.0
 30
0.0
  9
$PUCSORGFRONT
 10
0.0
 20
0.0
 30
0.0
  9
$PUCSORGBACK
 10
0.0
 20
0.0
 30
0.0
  9
$USERI1
 70
     0
  9
$USERI2
 70
     0
  9
$USERI3
 70
     0
  9
$USERI4
 70
     0
  9
$USERI5
 70
     0
  9
$USERR1
 40
18.1
  9
$USERR2
 40
0.0
  9
$USERR3
 40
0.0
  9
$USERR4
 40
0.0
  9
$USERR5
 40
0.0
  9
$WORLDVIEW
 70
     1
  9
$SHADEDGE
 70
     3
  9
$SHADEDIF
 70
    70
  9
$TILEMODE
 70
     1
  9
$MAXACTVP
 70
    64
  9
$PINSBASE
 10
0.0
 20
0.0
 30
0.0
  9
$PLIMCHECK
 70
     0
  9
$PEXTMIN
 10
1.00000000000000E+20
 20
1.00000000000000E+20
 30
1.00000000000000E+20
  9
$PEXTMAX
 10
-1.00000000000000E+20
 20
-1.00000000000000E+20
 30
-1.00000000000000E+20
  9
$PLIMMIN
 10
0.0
 20
0.0
  9
$PLIMMAX
 10
12.0
 20
9.0
  9
$UNITMODE
 70
     0
  9
$VISRETAIN
 70
     1
  9
$PLINEGEN
 70
     0
  9
$PSLTSCALE
 70
     1
  9
$TREEDEPTH
 70
  3020
  9
$CMLSTYLE
  2
Standard
  9
$CMLJUST
 70
     0
  9
$CMLSCALE
 40
1.0
  9
$PROXYGRAPHICS
 70
     1
  9
$MEASUREMENT
 70
     1
  9
$CELWEIGHT
370
    -1
  9
$ENDCAPS
280
     0
  9
$JOINSTYLE
280
     0
  9
$LWDISPLAY
290
     0
  9
$INSUNITS
 70
     4
  9
$HYPERLINKBASE
  1

  9
$STYLESHEET
  1

  9
$XEDIT
290
     1
  9
$CEPSNTYPE
380
     0
  9
$PSTYLEMODE
290
     1
  9
$FINGERPRINTGUID
  2
{C8F2FA89-ADAD-494C-B922-DEAA49AA7888}
  9
$VERSIONGUID
  2
{FAEB1C32-E019-11D5-929B-00C0DF256EC4}
  9
$EXTNAMES
290
     1
  9
$PSVPSCALE
 40
0.0
  9
$OLESTARTUP
290
     0
  0
ENDSEC
  0
SECTION
  2
CLASSES
  0
CLASS
  1
ACDBDICTIONARYWDFLT
  2
AcDbDictionaryWithDefault
  3
ObjectDBX Classes
 90
        0
280
     0
281
     0
  0
CLASS
  1
VISUALSTYLE
  2
AcDbVisualStyle
  3
ObjectDBX Classes
 90
     4095
280
     0
281
     0
  0
CLASS
  1
MATERIAL
  2
AcDbMaterial
  3
ObjectDBX Classes
 90
     1153
280
     0
281
     0
  0
CLASS
  1
DICTIONARYVAR
  2
AcDbDictionaryVar
  3
ObjectDBX Classes
 90
        0
280
     0
281
     0
  0
CLASS
  1
ACDBPLACEHOLDER
  2
AcDbPlaceHolder
  3
ObjectDBX Classes
 90
        0
280
     0
281
     0
  0
CLASS
  1
LAYOUT
  2
AcDbLayout
  3
ObjectDBX Classes
 90
        0
280
     0
281
     0
  0
ENDSEC
  0
SECTION
  2
TABLES
  0
TABLE
  2
VPORT
  5
8
330
0
100
AcDbSymbolTable
 70
     1
  0
VPORT
  5
29
330
8
100
AcDbSymbolTableRecord
100
AcDbViewportTableRecord
  2
*Active
 70
     0
 10
0.0
 20
0.0
 11
1.0
 21
1.0
 12
148.5000000000001
 22
105.0000000000001
 13
0.0
 23
0.0
 14
0.5
 24
0.5
 15
0.5
 25
0.5
 16
0.0
 26
0.0
 36
1.0
 17
0.0
 27
0.0
 37
0.0
 40
231.0000000000001
 41
1.60267857142857
 42
50.0
 43
0.0
 44
0.0
 50
0.0
 51
0.0
 71
     0
 72
   100
 73
     1
 74
     3
 75
     0
 76
     0
 77
     0
 78
     0
281
     0
 65
     1
110
0.0
120
0.0
130
0.0
111
1.0
121
0.0
131
0.0
112
0.0
122
1.0
132
0.0
 79
     0
146
0.0
  0
ENDTAB
  0
TABLE
  2
LTYPE
  5
5
330
0
100
AcDbSymbolTable
 70
     8
  0
LTYPE
  5
14
330
5
100
AcDbSymbolTableRecord
100
AcDbLinetypeTableRecord
  2
ByBlock
 70
     0
  3

 72
    65
 73
     0
 40
0.0
  0
LTYPE
  5
15
330
5
100
AcDbSymbolTableRecord
100
AcDbLinetypeTableRecord
  2
ByLayer
 70
     0
  3

 72
    65
 73
     0
 40
0.0
  0
LTYPE
  5
16
330
5
100
AcDbSymbolTableRecord
100
AcDbLinetypeTableRecord
  2
Continuous
 70
     0
  3
Solid line
 72
    65
 73
     0
 40
0.0
  0
LTYPE
  5
3F
330
5
100
AcDbSymbolTableRecord
100
AcDbLinetypeTableRecord
  2
DASHED
 70
     0
  3
Dashed
 72
    65
 73
     2
 40
15.0
 49
7.0
 74
     0
 49
-8.0
 74
     0
  0
LTYPE
  5
40
330
5
100
AcDbSymbolTableRecord
100
AcDbLinetypeTableRecord
  2
DOTTED
 70
     0
  3
Dotted
 72
    65
 73
     2
 40
1.0
 49
0.0
 74
     0
 49
-1.0
 74
     0
  0
LTYPE
  5
41
330
5
100
AcDbSymbolTableRecord
100
AcDbLinetypeTableRecord
  2
DOT_CENTER
 70
     0
  3
Dot_Center
 72
    65
 73
     4
 40
14.0
 49
12.0
 74
     0
 49
-1.0
 74
     0
 49
0.0
 74
     0
 49
-1.0
 74
     0
  0
LTYPE
  5
42
330
5
100
AcDbSymbolTableRecord
100
AcDbLinetypeTableRecord
  2
LONG_DASHED
 70
     0
  3
Long_Dashed
 72
    65
 73
     2
 40
15.0
 49
10.0
 74
     0
 49
-5.0
 74
     0
  0
LTYPE
  5
43
330
5
100
AcDbSymbolTableRecord
100
AcDbLinetypeTableRecord
  2
DASH_CENTER
 70
     0
  3
Dash_Center
 72
    65
 73
     4
 40
14.0
 49
11.0
 74
     0
 49
-1.0
 74
     0
 49
1.0
 74
     0
 49
-1.0
 74
     0
  0
LTYPE
  5
44
330
5
100
AcDbSymbolTableRecord
100
AcDbLinetypeTableRecord
  2
PHANTOM
 70
     0
  3
Phantom
 72
    65
 73
     6
 40
13.0
 49
10.0
 74
     0
 49
-1.0
 74
     0
 49
0.0
 74
     0
 49
-1.0
 74
     0
 49
0.0
 74
     0
 49
-1.0
 74
     0
  0
LTYPE
  5
45
330
5
100
AcDbSymbolTableRecord
100
AcDbLinetypeTableRecord
  2
CENTER_DASH_DASH
 70
     0
  3
Center_Dash_Dash
 72
    65
 73
     6
 40
14.0
 49
9.0
 74
     0
 49
-1.0
 74
     0
 49
1.0
 74
     0
 49
-1.0
 74
     0
 49
1.0
 74
     0
 49
-1.0
 74
     0
  0
ENDTAB
  0
TABLE
  2
LAYER
  5
2
330
0
100
AcDbSymbolTable
 70
     3
  0
LAYER
  5
10
330
2
100
AcDbSymbolTableRecord
100
AcDbLayerTableRecord
  2
0
 70
     0
 62
     7
  6
Continuous
370
    -3
390
F
  0
LAYER
  5
46
330
2
100
AcDbSymbolTableRecord
100
AcDbLayerTableRecord
  2
1
 70
     0
 62
     7
  6
Continuous
370
    -3
390
F
  0
LAYER
  5
47
330
2
100
AcDbSymbolTableRecord
100
AcDbLayerTableRecord
  2
Symbole_TC_020513_DIN_
 70
     0
 62
     7
  6
Continuous
370
    -3
390
F
  0
ENDTAB
  0
TABLE
  2
STYLE
  5
3
330
0
100
AcDbSymbolTable
 70
     4
  0
STYLE
  5
11
330
3
100
AcDbSymbolTableRecord
100
AcDbTextStyleTableRecord
  2
Standard
 70
     0
 40
0.0
 41
1.0
 50
0.0
 71
     0
 42
0.2
  3
txt
  4

  0
STYLE
  5
9C
330
3
100
AcDbSymbolTableRecord
100
AcDbTextStyleTableRecord
  2
CONVERTER_11
 70
     0
 40
0.0
 41
1.2
 50
0.0
 71
     0
 42
0.2
  3
ARIAL.TTF
  4

  0
STYLE
  5
A1
330
3
100
AcDbSymbolTableRecord
100
AcDbTextStyleTableRecord
  2
CONVERTER_12
 70
     0
 40
0.0
 41
1.38
 50
0.0
 71
     0
 42
0.2
  3
ARIAL.TTF
  4

  0
STYLE
  5
457
330
3
100
AcDbSymbolTableRecord
100
AcDbTextStyleTableRecord
  2
CONVERTER_13
 70
     0
 40
0.0
 41
0.95
 50
0.0
 71
     0
 42
0.2
  3
simplex.shx
  4

  0
ENDTAB
  0
TABLE
  2
VIEW
  5
6
330
0
100
AcDbSymbolTable
 70
     0
  0
ENDTAB
  0
TABLE
  2
UCS
  5
7
330
0
100
AcDbSymbolTable
 70
     0
  0
ENDTAB
  0
TABLE
  2
APPID
  5
9
330
0
100
AcDbSymbolTable
 70
     1
  0
APPID
  5
12
330
9
100
AcDbSymbolTableRecord
100
AcDbRegAppTableRecord
  2
ACAD
 70
     0
  0
ENDTAB
  0
TABLE
  2
DIMSTYLE
  5
A
330
0
100
AcDbSymbolTable
 70
     7
100
AcDbDimStyleTable
  0
DIMSTYLE
105
27
330
A
100
AcDbSymbolTableRecord
100
AcDbDimStyleTableRecord
  2
Standard
 70
     0
178
     0
340
11
  0
DIMSTYLE
105
47C
102
{ACAD_REACTORS
330
47D
102
}
330
A
100
AcDbSymbolTableRecord
100
AcDbDimStyleTableRecord
  2
ME10_DIM_10
 70
     0
 41
3.0
 42
0.5
 44
1.0
 71
     1
 73
     0
 74
     0
 77
     1
 78
     8
140
3.0
146
0.6
147
2.0
172
     1
173
     1
174
     1
175
     1
176
     2
177
     2
271
     2
178
     4
271
     2
272
     0
340
457
  0
DIMSTYLE
105
487
102
{ACAD_REACTORS
330
488
102
}
330
A
100
AcDbSymbolTableRecord
100
AcDbDimStyleTableRecord
  2
ME10_DIM_11
 70
     0
 41
3.0
 42
0.5
 44
1.0
 73
     0
 74
     0
 77
     1
 78
     8
140
3.0
147
2.0
172
     1
173
     1
174
     1
175
     1
176
     2
177
     2
271
     2
178
     4
271
     2
340
457
  0
DIMSTYLE
105
492
102
{ACAD_REACTORS
330
493
102
}
330
A
100
AcDbSymbolTableRecord
100
AcDbDimStyleTableRecord
  2
ME10_DIM_12
 70
     0
  3
 ±50 mm
 41
3.0
 42
0.5
 44
1.0
 73
     0
 74
     0
 77
     1
 78
     8
140
3.0
147
2.0
172
     1
173
     1
174
     1
175
     1
176
     2
177
     2
271
     2
178
     4
271
     2
340
457
  0
DIMSTYLE
105
49D
102
{ACAD_REACTORS
330
49E
102
}
330
A
100
AcDbSymbolTableRecord
100
AcDbDimStyleTableRecord
  2
ME10_DIM_13
 70
     0
 41
3.0
 42
0.5
 44
1.0
 73
     0
 74
     0
 77
     1
 78
     8
140
3.0
147
2.0
172
     1
173
     1
174
     1
175
     1
176
     2
177
     2
271
     2
178
     4
271
     2
340
457
  0
DIMSTYLE
105
4A8
102
{ACAD_REACTORS
330
4A9
102
}
330
A
100
AcDbSymbolTableRecord
100
AcDbDimStyleTableRecord
  2
ME10_DIM_14
 70
     0
 41
3.0
 42
0.5
 44
1.0
 71
     1
 73
     0
 74
     0
 77
     1
 78
     8
140
3.0
146
0.6
147
2.0
172
     1
173
     1
174
     1
175
     1
176
     2
177
     2
271
     2
178
     4
271
     2
272
     0
340
457
  0
DIMSTYLE
105
4B3
102
{ACAD_REACTORS
330
4B4
102
}
330
A
100
AcDbSymbolTableRecord
100
AcDbDimStyleTableRecord
  2
ME10_DIM_15
 70
     0
 41
3.0
 42
0.5
 44
1.0
 73
     0
 74
     0
 77
     1
 78
     8
140
3.0
147
2.0
172
     1
173
     1
174
     1
175
     1
176
     2
177
     2
271
     2
178
     4
271
     2
340
457
  0
ENDTAB
  0
TABLE
  2
BLOCK_RECORD
  5
1
330
0
100
AcDbSymbolTable
 70
     9
  0
BLOCK_RECORD
  5
1F
330
1
100
AcDbSymbolTableRecord
100
AcDbBlockTableRecord
  2
*Model_Space
340
22
  0
BLOCK_RECORD
  5
1B
330
1
100
AcDbSymbolTableRecord
100
AcDbBlockTableRecord
  2
*Paper_Space
340
1E
  0
BLOCK_RECORD
  5
23
330
1
100
AcDbSymbolTableRecord
100
AcDbBlockTableRecord
  2
*Paper_Space0
340
26
  0
BLOCK_RECORD
  5
48
330
1
100
AcDbSymbolTableRecord
100
AcDbBlockTableRecord
  2
_formato_A4
340
0
102
{BLKREFS
331
4C
102
}
  0
BLOCK_RECORD
  5
4B
330
1
100
AcDbSymbolTableRecord
100
AcDbBlockTableRecord
  2
A4_oriz
340
0
102
{BLKREFS
331
4F
102
}
  0
BLOCK_RECORD
  5
473
330
1
100
AcDbSymbolTableRecord
100
AcDbBlockTableRecord
  2
*D3
340
0
  0
BLOCK_RECORD
  5
47E
330
1
100
AcDbSymbolTableRecord
100
AcDbBlockTableRecord
  2
*D4
340
0
  0
BLOCK_RECORD
  5
489
330
1
100
AcDbSymbolTableRecord
100
AcDbBlockTableRecord
  2
*D5
340
0
  0
BLOCK_RECORD
  5
494
330
1
100
AcDbSymbolTableRecord
100
AcDbBlockTableRecord
  2
*D6
340
0
  0
BLOCK_RECORD
  5
49F
330
1
100
AcDbSymbolTableRecord
100
AcDbBlockTableRecord
  2
*D7
340
0
  0
BLOCK_RECORD
  5
4AA
330
1
100
AcDbSymbolTableRecord
100
AcDbBlockTableRecord
  2
*D8
340
0
  0
ENDTAB
  0
ENDSEC
  0
SECTION
  2
BLOCKS
  0
BLOCK
  5
20
330
1F
100
AcDbEntity
  8
0
100
AcDbBlockBegin
  2
*Model_Space
 70
     0
 10
0.0
 20
0.0
 30
0.0
  3
*Model_Space
  1

  0
ENDBLK
  5
21
330
1F
100
AcDbEntity
  8
0
100
AcDbBlockEnd
  0
BLOCK
  5
1C
330
1B
100
AcDbEntity
 67
     1
  8
0
100
AcDbBlockBegin
  2
*Paper_Space
 70
     0
 10
0.0
 20
0.0
 30
0.0
  3
*Paper_Space
  1

  0
ENDBLK
  5
1D
330
1B
100
AcDbEntity
 67
     1
  8
0
100
AcDbBlockEnd
  0
BLOCK
  5
24
330
23
100
AcDbEntity
  8
0
100
AcDbBlockBegin
  2
*Paper_Space0
 70
     0
 10
0.0
 20
0.0
 30
0.0
  3
*Paper_Space0
  1

  0
ENDBLK
  5
25
330
23
100
AcDbEntity
  8
0
100
AcDbBlockEnd
  0
BLOCK
  5
49
330
48
100
AcDbEntity
  8
0
100
AcDbBlockBegin
  2
_formato_A4
 70
     0
 10
297.0000000000001
 20
0.0
 30
0.0
  3
_formato_A4
  1

  0
LINE
  5
50
330
48
100
AcDbEntity
  8
1
  6
Continuous
 62
     7
100
AcDbLine
 10
108.0000000000001
 20
9.99999999999986
 30
0.0
 11
138.0000000000001
 21
9.99999999999986
 31
0.0
  0
LINE
  5
51
330
48
100
AcDbEntity
  8
1
  6
Continuous
 62
     7
100
AcDbLine
 10
108.0000000000001
 20
14.99999999999989
 30
0.0
 11
138.0000000000001
 21
14.99999999999989
 31
0.0
  0
LINE
  5
52
330
48
100
AcDbEntity
  8
1
  6
Continuous
 62
     7
100
AcDbLine
 10
248.0000000000001
 20
20.0
 30
0.0
 11
248.0000000000001
 21
5.0
 31
0.0
  0
LINE
  5
53
330
48
100
AcDbEntity
  8
1
  6
Continuous
 62
     7
100
AcDbLine
 10
265.3526013774855
 20
20.0
 30
0.0
 11
265.3526013774855
 21
5.0
 31
0.0
  0
LINE
  5
54
330
48
100
AcDbEntity
  8
1
  6
Continuous
 62
     7
100
AcDbLine
 10
138.0000000000001
 20
20.0
 30
0.0
 11
138.0000000000001
 21
5.0
 31
0.0
  0
LINE
  5
55
330
48
100
AcDbEntity
  8
1
  6
Continuous
 62
     7
100
AcDbLine
 10
148.4999999999998
 20
210.0000000000001
 30
0.0
 11
148.4999999999998
 21
195.0000000000001
 31
0.0
  0
LINE
  5
56
330
48
100
AcDbEntity
  8
1
  6
Continuous
 62
     7
100
AcDbLine
 10
0.0
 20
0.0
 30
0.0
 11
297.0000000000001
 21
0.0
 31
0.0
  0
LINE
  5
57
330
48
100
AcDbEntity
  8
1
  6
Continuous
 62
     7
100
AcDbLine
 10
0.0
 20
210.0000000000001
 30
0.0
 11
0.0
 21
0.0
 31
0.0
  0
LINE
  5
58
330
48
100
AcDbEntity
  8
1
  6
Continuous
 62
     7
100
AcDbLine
 10
297.0000000000001
 20
210.0000000000001
 30
0.0
 11
0.0
 21
210.0000000000001
 31
0.0
  0
LINE
  5
59
330
48
100
AcDbEntity
  8
1
  6
Continuous
 62
     7
100
AcDbLine
 10
297.0000000000001
 20
0.0
 30
0.0
 11
297.0000000000001
 21
210.0000000000001
 31
0.0
  0
LINE
  5
5A
330
48
100
AcDbEntity
  8
1
  6
Continuous
 62
     7
100
AcDbLine
 10
4.99999999999989
 20
5.0
 30
0.0
 11
292.0000000000001
 21
5.0
 31
0.0
  0
LINE
  5
5B
330
48
100
AcDbEntity
  8
1
  6
Continuous
 62
     7
100
AcDbLine
 10
292.0000000000001
 20
5.0
 30
0.0
 11
292.0000000000001
 21
189.0
 31
0.0
  0
LINE
  5
5C
330
48
100
AcDbEntity
  8
1
  6
Continuous
 62
     7
100
AcDbLine
 10
292.0000000000001
 20
189.0
 30
0.0
 11
4.99999999999989
 21
189.0
 31
0.0
  0
LINE
  5
5D
102
{ACAD_REACTORS
330
AA
102
}
330
48
100
AcDbEntity
  8
1
  6
Continuous
 62
     7
100
AcDbLine
 10
281.0096340220762
 20
10.07749983983263
 30
0.0
 11
281.0096340220762
 21
14.92250016016737
 31
0.0
  0
LINE
  5
5E
102
{ACAD_REACTORS
330
A7
102
}
330
48
100
AcDbEntity
  8
1
  6
Continuous
 62
     7
100
AcDbLine
 10
279.6763006887428
 20
12.5
 30
0.0
 11
279.6763006887428
 21
14.23205080756884
 31
0.0
  0
LINE
  5
5F
102
{ACAD_REACTORS
330
A7
102
}
330
48
100
AcDbEntity
  8
1
  6
Continuous
 62
     7
100
AcDbLine
 10
279.6763006887428
 20
14.23205080756884
 30
0.0
 11
278.8206382560402
 21
12.75
 31
0.0
  0
LINE
  5
60
102
{ACAD_REACTORS
330
A7
102
}
330
48
100
AcDbEntity
  8
1
  6
Continuous
 62
     7
100
AcDbLine
 10
278.5319631214453
 20
12.75
 30
0.0
 11
277.6763006887428
 21
14.23205080756884
 31
0.0
  0
LINE
  5
61
102
{ACAD_REACTORS
330
A7
102
}
330
48
100
AcDbEntity
  8
1
  6
Continuous
 62
     7
100
AcDbLine
 10
277.6763006887428
 20
14.23205080756884
 30
0.0
 11
277.6763006887428
 21
12.5
 31
0.0
  0
LINE
  5
62
330
48
100
AcDbEntity
  8
1
  6
Continuous
 62
     7
100
AcDbLine
 10
270.2598654136012
 20
12.64436426434133
 30
0.0
 11
278.6763006887428
 21
17.5
 31
0.0
  0
LINE
  5
63
330
48
100
AcDbEntity
  8
1
  6
Continuous
 62
     7
100
AcDbLine
 10
278.6763006887428
 20
17.5
 30
0.0
 11
287.0927359638843
 21
12.64436426434133
 31
0.0
  0
LINE
  5
64
330
48
100
AcDbEntity
  8
1
  6
Continuous
 62
     7
100
AcDbLine
 10
287.0927359638843
 20
12.35563573565855
 30
0.0
 11
278.6763006887428
 21
7.5
 31
0.0
  0
LINE
  5
65
330
48
100
AcDbEntity
  8
1
  6
Continuous
 62
     7
100
AcDbLine
 10
278.6763006887428
 20
7.5
 30
0.0
 11
270.2598654136012
 21
12.35563573565855
 31
0.0
  0
LINE
  5
66
102
{ACAD_REACTORS
330
A7
102
}
330
48
100
AcDbEntity
  8
1
  6
Continuous
 62
     7
100
AcDbLine
 10
277.0096340220761
 20
12.5
 30
0.0
 11
277.0096340220761
 21
15.73121731203457
 31
0.0
  0
LINE
  5
67
102
{ACAD_REACTORS
330
A7
102
}
330
48
100
AcDbEntity
  8
1
  6
Continuous
 62
     7
100
AcDbLine
 10
277.5040677056995
 20
15.86370041827229
 30
0.0
 11
278.6763006887428
 21
13.83333333333326
 31
0.0
  0
LINE
  5
68
102
{ACAD_REACTORS
330
A7
102
}
330
48
100
AcDbEntity
  8
1
  6
Continuous
 62
     7
100
AcDbLine
 10
277.0096340220761
 20
12.5
 30
0.0
 11
277.0096340220761
 21
10.84758507263291
 31
0.0
  0
LINE
  5
69
102
{ACAD_REACTORS
330
A7
102
}
330
48
100
AcDbEntity
  8
1
  6
Continuous
 62
     7
100
AcDbLine
 10
277.6763006887428
 20
10.84758507263291
 30
0.0
 11
277.6763006887428
 21
12.5
 31
0.0
  0
LINE
  5
6A
102
{ACAD_REACTORS
330
A7
102
}
330
48
100
AcDbEntity
  8
1
  6
Continuous
 62
     7
100
AcDbLine
 10
279.6763006887428
 20
12.5
 30
0.0
 11
279.6763006887428
 21
9.3082690706018
 31
0.0
  0
LINE
  5
6B
102
{ACAD_REACTORS
330
A7
102
}
330
48
100
AcDbEntity
  8
1
  6
Continuous
 62
     7
100
AcDbLine
 10
280.3429673554094
 20
9.3082690706018
 30
0.0
 11
280.3429673554094
 21
15.73121731203457
 31
0.0
  0
LINE
  5
6C
102
{ACAD_REACTORS
330
A7
102
}
330
48
100
AcDbEntity
  8
1
  6
Continuous
 62
     7
100
AcDbLine
 10
279.8485336717861
 20
15.86370041827229
 30
0.0
 11
278.6763006887428
 21
13.83333333333326
 31
0.0
  0
LINE
  5
6D
102
{ACAD_REACTORS
330
A8
102
}
330
48
100
AcDbEntity
  8
1
  6
Continuous
 62
     7
100
AcDbLine
 10
275.6763006887428
 20
10.27002114803258
 30
0.0
 11
275.6763006887428
 21
14.92250016016737
 31
0.0
  0
LINE
  5
6E
102
{ACAD_REACTORS
330
A8
102
}
330
48
100
AcDbEntity
  8
1
  6
Continuous
 62
     7
100
AcDbLine
 10
276.3429673554094
 20
14.92250016016737
 30
0.0
 11
276.3429673554094
 21
10.2700211480327
 31
0.0
  0
LINE
  5
6F
102
{ACAD_REACTORS
330
A8
102
}
330
48
100
AcDbEntity
  8
1
  6
Continuous
 62
     7
100
AcDbLine
 10
276.3429673554094
 20
10.2700211480327
 30
0.0
 11
278.5095415065727
 21
9.0200745223616
 31
0.0
  0
LINE
  5
70
102
{ACAD_REACTORS
330
A8
102
}
330
48
100
AcDbEntity
  8
1
  6
Continuous
 62
     7
100
AcDbLine
 10
278.1763932042462
 20
8.44261746499581
 30
0.0
 11
276.0098190530831
 21
9.69256409066691
 31
0.0
  0
LINE
  5
71
102
{ACAD_REACTORS
330
A9
102
}
330
48
100
AcDbEntity
  8
1
  6
Continuous
 62
     7
100
AcDbLine
 10
275.0096340220761
 20
14.15326939093666
 30
0.0
 11
275.0096340220761
 21
11.0392519172633
 31
0.0
  0
LINE
  5
72
102
{ACAD_REACTORS
330
A9
102
}
330
48
100
AcDbEntity
  8
1
  6
Continuous
 62
     7
100
AcDbLine
 10
275.0096340220761
 20
11.0392519172633
 30
0.0
 11
275.0096340220761
 21
10.84673060906323
 31
0.0
  0
LINE
  5
73
102
{ACAD_REACTORS
330
A9
102
}
330
48
100
AcDbEntity
  8
1
  6
Continuous
 62
     7
100
AcDbLine
 10
274.3429673554094
 20
10.84673060906323
 30
0.0
 11
274.3429673554094
 21
14.15326939093666
 31
0.0
  0
LINE
  5
74
102
{ACAD_REACTORS
330
AA
102
}
330
48
100
AcDbEntity
  8
1
  6
Continuous
 62
     7
100
AcDbLine
 10
281.5095415065727
 20
15.21122868885027
 30
0.0
 11
282.8428748399059
 21
14.44199791961944
 31
0.0
  0
LINE
  5
75
102
{ACAD_REACTORS
330
AA
102
}
330
48
100
AcDbEntity
  8
1
  6
Continuous
 62
     7
100
AcDbLine
 10
282.5097265375796
 20
13.86454086225376
 30
0.0
 11
281.6763006887428
 21
14.34536346735195
 31
0.0
  0
LINE
  5
76
102
{ACAD_REACTORS
330
AA
102
}
330
48
100
AcDbEntity
  8
1
  6
Continuous
 62
     7
100
AcDbLine
 10
281.6763006887428
 20
14.34536346735195
 30
0.0
 11
281.6763006887428
 21
12.83333333333326
 31
0.0
  0
LINE
  5
77
102
{ACAD_REACTORS
330
AA
102
}
330
48
100
AcDbEntity
  8
1
  6
Continuous
 62
     7
100
AcDbLine
 10
281.6763006887428
 20
12.83333333333326
 30
0.0
 11
282.6763006887428
 21
12.83333333333326
 31
0.0
  0
LINE
  5
78
102
{ACAD_REACTORS
330
AA
102
}
330
48
100
AcDbEntity
  8
1
  6
Continuous
 62
     7
100
AcDbLine
 10
282.6763006887428
 20
12.16666666666663
 30
0.0
 11
281.6763006887428
 21
12.16666666666663
 31
0.0
  0
LINE
  5
79
102
{ACAD_REACTORS
330
AA
102
}
330
48
100
AcDbEntity
  8
1
  6
Continuous
 62
     7
100
AcDbLine
 10
281.6763006887428
 20
12.16666666666663
 30
0.0
 11
281.6763006887428
 21
10.65463653264794
 31
0.0
  0
LINE
  5
7A
102
{ACAD_REACTORS
330
AA
102
}
330
48
100
AcDbEntity
  8
1
  6
Continuous
 62
     7
100
AcDbLine
 10
281.6763006887428
 20
10.65463653264794
 30
0.0
 11
282.5097265375796
 21
11.13545913774624
 31
0.0
  0
LINE
  5
7B
102
{ACAD_REACTORS
330
AA
102
}
330
48
100
AcDbEntity
  8
1
  6
Continuous
 62
     7
100
AcDbLine
 10
282.8428748399059
 20
10.55800208038033
 30
0.0
 11
281.5095415065727
 21
9.78877131114973
 31
0.0
  0
LINE
  5
7C
330
48
100
AcDbEntity
  8
1
  6
Continuous
 62
     7
100
AcDbLine
 10
108.0000000000001
 20
25.0
 30
0.0
 11
292.0000000000001
 21
25.0
 31
0.0
  0
LINE
  5
7D
330
48
100
AcDbEntity
  8
1
  6
Continuous
 62
     7
100
AcDbLine
 10
115.0000000000001
 20
20.0
 30
0.0
 11
115.0000000000001
 21
25.0
 31
0.0
  0
LINE
  5
7E
330
48
100
AcDbEntity
  8
1
  6
Continuous
 62
     7
100
AcDbLine
 10
133.0000000000002
 20
20.0
 30
0.0
 11
133.0000000000002
 21
25.0
 31
0.0
  0
LINE
  5
7F
330
48
100
AcDbEntity
  8
1
  6
Continuous
 62
     7
100
AcDbLine
 10
108.0000000000001
 20
30.0
 30
0.0
 11
292.0000000000001
 21
30.0
 31
0.0
  0
LINE
  5
80
330
48
100
AcDbEntity
  8
1
  6
Continuous
 62
     7
100
AcDbLine
 10
115.0000000000001
 20
25.0
 30
0.0
 11
115.0000000000001
 21
30.0
 31
0.0
  0
LINE
  5
81
330
48
100
AcDbEntity
  8
1
  6
Continuous
 62
     7
100
AcDbLine
 10
133.0000000000002
 20
25.0
 30
0.0
 11
133.0000000000002
 21
30.0
 31
0.0
  0
LINE
  5
82
330
48
100
AcDbEntity
  8
1
  6
Continuous
 62
     7
100
AcDbLine
 10
108.0000000000001
 20
35.0
 30
0.0
 11
292.0000000000001
 21
35.0
 31
0.0
  0
LINE
  5
83
330
48
100
AcDbEntity
  8
1
  6
Continuous
 62
     7
100
AcDbLine
 10
115.0000000000001
 20
30.0
 30
0.0
 11
115.0000000000001
 21
35.0
 31
0.0
  0
LINE
  5
84
330
48
100
AcDbEntity
  8
1
  6
Continuous
 62
     7
100
AcDbLine
 10
133.0000000000002
 20
30.0
 30
0.0
 11
133.0000000000002
 21
35.0
 31
0.0
  0
LINE
  5
85
330
48
100
AcDbEntity
  8
1
  6
Continuous
 62
     7
100
AcDbLine
 10
108.0000000000001
 20
40.0
 30
0.0
 11
292.0000000000001
 21
40.0
 31
0.0
  0
LINE
  5
86
330
48
100
AcDbEntity
  8
1
  6
Continuous
 62
     7
100
AcDbLine
 10
115.0000000000001
 20
35.0
 30
0.0
 11
115.0000000000001
 21
40.0
 31
0.0
  0
LINE
  5
87
330
48
100
AcDbEntity
  8
1
  6
Continuous
 62
     7
100
AcDbLine
 10
133.0000000000002
 20
35.0
 30
0.0
 11
133.0000000000002
 21
40.0
 31
0.0
  0
LINE
  5
88
330
48
100
AcDbEntity
  8
1
  6
Continuous
 62
     7
100
AcDbLine
 10
4.99999999999989
 20
189.0
 30
0.0
 11
4.99999999999989
 21
5.0
 31
0.0
  0
LINE
  5
89
330
48
100
AcDbEntity
  8
1
  6
Continuous
 62
     7
100
AcDbLine
 10
108.0000000000001
 20
20.0
 30
0.0
 11
292.0000000000001
 21
20.0
 31
0.0
  0
LINE
  5
8A
330
48
100
AcDbEntity
  8
1
  6
Continuous
 62
     7
100
AcDbLine
 10
108.0000000000001
 20
4.99999999999989
 30
0.0
 11
108.0000000000001
 21
40.0
 31
0.0
  0
ARC
  5
8B
102
{ACAD_REACTORS
330
A7
102
}
330
48
100
AcDbEntity
  8
1
  6
Continuous
 62
     7
100
AcDbCircle
 10
277.2746002345514
 20
15.73121731203457
 30
0.0
 40
0.2649662124753346
100
AcDbArc
 50
30.00000000001307
 51
180.0
  0
ARC
  5
8C
102
{ACAD_REACTORS
330
A7
102
}
330
48
100
AcDbEntity
  8
1
  6
Continuous
 62
     7
100
AcDbCircle
 10
277.3429673554094
 20
10.84758507263291
 30
0.0
 40
0.3333333333333144
100
AcDbArc
 50
180.0
 51
0.0
  0
ARC
  5
8D
102
{ACAD_REACTORS
330
A7
102
}
330
48
100
AcDbEntity
  8
1
  6
Continuous
 62
     7
100
AcDbCircle
 10
280.0096340220762
 20
9.3082690706018
 30
0.0
 40
0.3333333333334281
100
AcDbArc
 50
180.0
 51
0.0
  0
ARC
  5
8E
102
{ACAD_REACTORS
330
A7
102
}
330
48
100
AcDbEntity
  8
1
  6
Continuous
 62
     7
100
AcDbCircle
 10
280.0780011429341
 20
15.73121731203457
 30
0.0
 40
0.2649662124753149
100
AcDbArc
 50
0.0
 51
149.9999999999746
  0
ARC
  5
8F
102
{ACAD_REACTORS
330
A8
102
}
330
48
100
AcDbEntity
  8
1
  6
Continuous
 62
     7
100
AcDbCircle
 10
276.0096340220761
 20
14.92250016016737
 30
0.0
 40
0.3333333333333144
100
AcDbArc
 50
0.0
 51
180.0
  0
ARC
  5
90
102
{ACAD_REACTORS
330
A8
102
}
330
48
100
AcDbEntity
  8
1
  6
Continuous
 62
     7
100
AcDbCircle
 10
278.3429673554094
 20
8.7313459936787
 30
0.0
 40
0.3333333333333709
100
AcDbArc
 50
240.0183606311493
 51
60.01836063114089
  0
ARC
  5
91
102
{ACAD_REACTORS
330
A9
102
}
330
48
100
AcDbEntity
  8
1
  6
Continuous
 62
     7
100
AcDbCircle
 10
274.6763006887428
 20
14.15326939093666
 30
0.0
 40
0.3333333333333144
100
AcDbArc
 50
0.0
 51
180.0
  0
ARC
  5
92
102
{ACAD_REACTORS
330
A9
102
}
330
48
100
AcDbEntity
  8
1
  6
Continuous
 62
     7
100
AcDbCircle
 10
274.6763006887428
 20
10.84673060906323
 30
0.0
 40
0.3333333333333712
100
AcDbArc
 50
180.0
 51
0.0
  0
ARC
  5
93
102
{ACAD_REACTORS
330
AA
102
}
330
48
100
AcDbEntity
  8
1
  6
Continuous
 62
     7
100
AcDbCircle
 10
282.6763006887428
 20
14.15326939093666
 30
0.0
 40
0.3333333333333755
100
AcDbArc
 50
240.0183606311498
 51
60.01836063115638
  0
ARC
  5
94
102
{ACAD_REACTORS
330
AA
102
}
330
48
100
AcDbEntity
  8
1
  6
Continuous
 62
     7
100
AcDbCircle
 10
282.6763006887428
 20
12.5
 30
0.0
 40
0.3333333333333695
100
AcDbArc
 50
270.0
 51
90.0
  0
ARC
  5
95
102
{ACAD_REACTORS
330
AA
102
}
330
48
100
AcDbEntity
  8
1
  6
Continuous
 62
     7
100
AcDbCircle
 10
282.6763006887428
 20
10.84673060906323
 30
0.0
 40
0.3333333333333172
100
AcDbArc
 50
299.9816393688334
 51
119.9816393688407
  0
ARC
  5
96
102
{ACAD_REACTORS
330
A7
102
}
330
48
100
AcDbEntity
  8
1
  6
Continuous
 62
     7
100
AcDbCircle
 10
278.6763006887428
 20
12.83333333333326
 30
0.0
 40
0.166666666666709
100
AcDbArc
 50
209.9999999999622
 51
330.0000000000182
  0
ARC
  5
97
102
{ACAD_REACTORS
330
A8
102
}
330
48
100
AcDbEntity
  8
1
  6
Continuous
 62
     7
100
AcDbCircle
 10
276.3429673554094
 20
10.2700211480327
 30
0.0
 40
0.6666666666666288
100
AcDbArc
 50
180.0000000000104
 51
240.018360631158
  0
ARC
  5
98
330
48
100
AcDbEntity
  8
1
  6
Continuous
 62
     7
100
AcDbCircle
 10
270.3431524891829
 20
12.5
 30
0.0
 40
0.1666666666666407
100
AcDbArc
 50
119.9816393689046
 51
240.0183606311158
  0
ARC
  5
99
330
48
100
AcDbEntity
  8
1
  6
Continuous
 62
     7
100
AcDbCircle
 10
287.0094488883027
 20
12.5
 30
0.0
 40
0.166666666666687
100
AcDbArc
 50
299.9816393688503
 51
60.01836063112923
  0
ARC
  5
9A
102
{ACAD_REACTORS
330
AA
102
}
330
48
100
AcDbEntity
  8
1
  6
Continuous
 62
     7
100
AcDbCircle
 10
281.3429673554094
 20
14.92250016016737
 30
0.0
 40
0.3333333333334024
100
AcDbArc
 50
60.01836063114121
 51
180.0
  0
ARC
  5
9B
102
{ACAD_REACTORS
330
AA
102
}
330
48
100
AcDbEntity
  8
1
  6
Continuous
 62
     7
100
AcDbCircle
 10
281.3429673554094
 20
10.07749983983263
 30
0.0
 40
0.3333333333332007
100
AcDbArc
 50
180.0
 51
299.9816393688589
  0
MTEXT
  5
9D
330
48
100
AcDbEntity
  8
1
 62
     7
100
AcDbMText
 10
119.6000000000001
 20
7.49999999999986
 30
0.0
 40
3.0
 41
0.0
 71
     4
 72
     1
  1
Radice
  7
CONVERTER_11
 73
     1
 44
1.32052821128451
  0
MTEXT
  5
9E
330
48
100
AcDbEntity
  8
1
 62
     7
100
AcDbMText
 10
109.0000000000001
 20
7.49999999999986
 30
0.0
 40
3.0
 41
0.0
 71
     4
 72
     1
  1
Sign.
  7
CONVERTER_11
 73
     1
 44
1.32052821128451
  0
MTEXT
  5
9F
330
48
100
AcDbEntity
  8
1
 62
     7
100
AcDbMText
 10
119.6000000000001
 20
12.49999999999986
 30
0.0
 40
3.0
 41
0.0
 71
     4
 72
     1
  1
27/01/14
  7
CONVERTER_11
 73
     1
 44
1.32052821128451
  0
MTEXT
  5
A0
330
48
100
AcDbEntity
  8
1
 62
     7
100
AcDbMText
 10
109.0000000000001
 20
12.49999999999986
 30
0.0
 40
3.0
 41
0.0
 71
     4
 72
     1
  1
Date
  7
CONVERTER_11
 73
     1
 44
1.32052821128451
  0
MTEXT
  5
A2
330
48
100
AcDbEntity
  8
1
 62
     7
100
AcDbMText
 10
123.0000000000001
 20
17.49999999999994
 30
0.0
 40
2.5
 41
0.0
 71
     5
 72
     1
  1
dimensions in mm
  7
CONVERTER_12
 73
     1
 44
0.60024009603842
  0
MTEXT
  5
A3
330
48
100
AcDbEntity
  8
1
 62
     7
100
AcDbMText
 10
151.4999999999998
 20
194.0000000000001
 30
0.0
 40
4.0
 41
0.0
 71
     5
 72
     1
  1
Diritti riservati      All rights reserved
  7
CONVERTER_11
 73
     1
 44
1.32052821128451
  0
MTEXT
  5
A4
330
48
100
AcDbEntity
  8
1
 62
     7
100
AcDbMText
 10
144.2763006887428
 20
12.5
 30
0.0
 40
4.5
 41
0.0
 71
     4
 72
     1
  1
CW ... J2M87\PPatch cable RJ45 CAT.7 PUR male/male
  7
CONVERTER_11
 73
     1
 44
0.90036014405762
  0
MTEXT
  5
A5
330
48
100
AcDbEntity
  8
1
 62
     7
100
AcDbMText
 10
256.6763006887428
 20
16.26063942075598
 30
0.0
 40
3.0
 41
0.0
 71
     5
 72
     1
  1
Scale
  7
CONVERTER_11
 73
     1
 44
1.32052821128451
  0
MTEXT
  5
A6
330
48
100
AcDbEntity
  8
1
 62
     7
100
AcDbMText
 10
256.6763006887428
 20
10.06063942075605
 30
0.0
 40
4.5
 41
0.0
 71
     5
 72
     1
  1
1:1
  7
CONVERTER_11
 73
     1
 44
1.32052821128451
  0
HATCH
  5
A7
330
48
100
AcDbEntity
  8
1
  6
Continuous
 62
     7
100
AcDbHatch
 10
0.0
 20
0.0
 30
0.0
210
0.0
220
0.0
230
1.0
  2
SOLID
 70
     1
 71
     1
 91
        1
 92
        1
 93
       16
 72
     2
 10
277.2746002345514
 20
15.73121731203457
 40
0.2649662124753346
 50
30.00000000001307
 51
180.0
 73
     1
 72
     1
 10
277.0096340220761
 20
15.73121731203457
 11
277.0096340220761
 21
12.5
 72
     1
 10
277.0096340220761
 20
12.5
 11
277.0096340220761
 21
10.84758507263291
 72
     2
 10
277.3429673554094
 20
10.84758507263291
 40
0.3333333333333144
 50
180.0
 51
360.0
 73
     1
 72
     1
 10
277.6763006887428
 20
10.84758507263291
 11
277.6763006887428
 21
12.5
 72
     1
 10
277.6763006887428
 20
12.5
 11
277.6763006887428
 21
14.23205080756884
 72
     1
 10
277.6763006887428
 20
14.23205080756884
 11
278.5319631214453
 21
12.75
 72
     2
 10
278.6763006887428
 20
12.83333333333326
 40
0.166666666666709
 50
209.9999999999622
 51
330.0000000000182
 73
     1
 72
     1
 10
278.8206382560402
 20
12.75
 11
279.6763006887428
 21
14.23205080756884
 72
     1
 10
279.6763006887428
 20
14.23205080756884
 11
279.6763006887428
 21
12.5
 72
     1
 10
279.6763006887428
 20
12.5
 11
279.6763006887428
 21
9.308269070601796
 72
     2
 10
280.0096340220762
 20
9.308269070601796
 40
0.3333333333334281
 50
180.0
 51
360.0
 73
     1
 72
     1
 10
280.3429673554094
 20
9.308269070601796
 11
280.3429673554094
 21
15.73121731203457
 72
     2
 10
280.0780011429341
 20
15.73121731203457
 40
0.2649662124753149
 50
0.0
 51
149.9999999999746
 73
     1
 72
     1
 10
279.8485336717861
 20
15.86370041827229
 11
278.6763006887428
 21
13.83333333333326
 72
     1
 10
278.6763006887428
 20
13.83333333333326
 11
277.5040677056995
 21
15.86370041827229
 97
       16
330
6C
330
8E
330
6B
330
8D
330
6A
330
5E
330
5F
330
96
330
60
330
61
330
69
330
8C
330
68
330
66
330
8B
330
67
 75
     0
 76
     1
 98
        1
 10
0.0
 20
0.0
  0
HATCH
  5
A8
330
48
100
AcDbEntity
  8
1
  6
Continuous
 62
     7
100
AcDbHatch
 10
0.0
 20
0.0
 30
0.0
210
0.0
220
0.0
230
1.0
  2
SOLID
 70
     1
 71
     1
 91
        1
 92
        1
 93
        7
 72
     1
 10
276.3429673554094
 20
14.92250016016737
 11
276.3429673554094
 21
10.2700211480327
 72
     1
 10
276.3429673554094
 20
10.2700211480327
 11
278.5095415065727
 21
9.020074522361597
 72
     2
 10
278.3429673554094
 20
8.731345993678701
 40
0.3333333333333709
 50
299.9816393688591
 51
479.9816393688507
 73
     0
 72
     1
 10
278.1763932042462
 20
8.442617464995806
 11
276.0098190530831
 21
9.692564090666906
 72
     2
 10
276.3429673554094
 20
10.2700211480327
 40
0.6666666666666288
 50
119.981639368842
 51
179.9999999999896
 73
     0
 72
     1
 10
275.6763006887428
 20
10.27002114803258
 11
275.6763006887428
 21
14.92250016016737
 72
     2
 10
276.0096340220761
 20
14.92250016016737
 40
0.3333333333333144
 50
180.0
 51
360.0
 73
     0
 97
        7
330
6E
330
6F
330
90
330
70
330
97
330
6D
330
8F
 75
     0
 76
     1
 98
        1
 10
0.0
 20
0.0
  0
HATCH
  5
A9
330
48
100
AcDbEntity
  8
1
  6
Continuous
 62
     7
100
AcDbHatch
 10
0.0
 20
0.0
 30
0.0
210
0.0
220
0.0
230
1.0
  2
SOLID
 70
     1
 71
     1
 91
        1
 92
        1
 93
        5
 72
     1
 10
275.0096340220761
 20
14.15326939093666
 11
275.0096340220761
 21
11.0392519172633
 72
     1
 10
275.0096340220761
 20
11.0392519172633
 11
275.0096340220761
 21
10.84673060906323
 72
     2
 10
274.6763006887428
 20
10.84673060906323
 40
0.3333333333333712
 50
0.0
 51
180.0
 73
     0
 72
     1
 10
274.3429673554094
 20
10.84673060906323
 11
274.3429673554094
 21
14.15326939093666
 72
     2
 10
274.6763006887428
 20
14.15326939093666
 40
0.3333333333333144
 50
180.0
 51
360.0
 73
     0
 97
        5
330
71
330
72
330
92
330
73
330
91
 75
     0
 76
     1
 98
        1
 10
0.0
 20
0.0
  0
HATCH
  5
AA
330
48
100
AcDbEntity
  8
1
  6
Continuous
 62
     7
100
AcDbHatch
 10
0.0
 20
0.0
 30
0.0
210
0.0
220
0.0
230
1.0
  2
SOLID
 70
     1
 71
     1
 91
        1
 92
        1
 93
       14
 72
     1
 10
282.5097265375796
 20
13.86454086225376
 11
281.6763006887428
 21
14.34536346735195
 72
     1
 10
281.6763006887428
 20
14.34536346735195
 11
281.6763006887428
 21
12.83333333333326
 72
     1
 10
281.6763006887428
 20
12.83333333333326
 11
282.6763006887428
 21
12.83333333333326
 72
     2
 10
282.6763006887428
 20
12.5
 40
0.3333333333333695
 50
270.0
 51
450.0
 73
     0
 72
     1
 10
282.6763006887428
 20
12.16666666666663
 11
281.6763006887428
 21
12.16666666666663
 72
     1
 10
281.6763006887428
 20
12.16666666666663
 11
281.6763006887428
 21
10.65463653264794
 72
     1
 10
281.6763006887428
 20
10.65463653264794
 11
282.5097265375796
 21
11.13545913774624
 72
     2
 10
282.6763006887428
 20
10.84673060906323
 40
0.3333333333333172
 50
240.0183606311593
 51
420.0183606311667
 73
     0
 72
     1
 10
282.8428748399059
 20
10.55800208038033
 11
281.5095415065727
 21
9.78877131114973
 72
     2
 10
281.3429673554094
 20
10.07749983983263
 40
0.3333333333332007
 50
60.01836063114119
 51
180.0
 73
     0
 72
     1
 10
281.0096340220762
 20
10.07749983983263
 11
281.0096340220762
 21
14.92250016016737
 72
     2
 10
281.3429673554094
 20
14.92250016016737
 40
0.3333333333334024
 50
180.0
 51
299.9816393688589
 73
     0
 72
     1
 10
281.5095415065727
 20
15.21122868885027
 11
282.8428748399059
 21
14.44199791961944
 72
     2
 10
282.6763006887428
 20
14.15326939093666
 40
0.3333333333333755
 50
299.9816393688436
 51
479.9816393688502
 73
     0
 97
       14
330
74
330
9A
330
5D
330
9B
330
7B
330
95
330
7A
330
79
330
78
330
94
330
77
330
76
330
75
330
93
 75
     0
 76
     1
 98
        1
 10
0.0
 20
0.0
  0
ENDBLK
  5
4A
330
48
100
AcDbEntity
  8
0
100
AcDbBlockEnd
  0
BLOCK
  5
4D
330
4B
100
AcDbEntity
  8
0
100
AcDbBlockBegin
  2
A4_oriz
 70
     0
 10
297.0000000000001
 20
0.0
 30
0.0
  3
A4_oriz
  1

  0
INSERT
  5
4C
330
4B
100
AcDbEntity
  8
1
100
AcDbBlockReference
  2
_formato_A4
 10
297.0000000000001
 20
0.0
 30
0.0
  0
ENDBLK
  5
4E
330
4B
100
AcDbEntity
  8
0
100
AcDbBlockEnd
  0
BLOCK
  5
47A
330
473
100
AcDbEntity
  8
0
100
AcDbBlockBegin
  2
*D3
 70
     1
 10
0.0
 20
0.0
 30
0.0
  3
*D3
  1

  0
LINE
  5
474
330
473
100
AcDbEntity
  8
1
  6
Continuous
 62
     2
100
AcDbLine
 10
61.6769005748389
 20
156.6587117466485
 30
0.0
 11
74.62690057483894
 21
156.6587117466485
 31
0.0
  0
LINE
  5
475
330
473
100
AcDbEntity
  8
1
  6
Continuous
 62
     2
100
AcDbLine
 10
74.62690057483894
 20
141.66017907759
 30
0.0
 11
74.62690057483894
 21
157.6587117466485
 31
0.0
  0
LINE
  5
476
330
473
100
AcDbEntity
  8
1
  6
Continuous
 62
     2
100
AcDbLine
 10
61.6769005748389
 20
140.6087117466487
 30
0.0
 11
61.6769005748389
 21
157.6587117466485
 31
0.0
  0
SOLID
  5
477
330
473
100
AcDbEntity
  8
1
 62
     2
100
AcDbTrace
 10
64.6769005748389
 20
157.0536692394107
 30
0.0
 11
64.6769005748389
 21
156.2637542538863
 31
0.0
 12
61.6769005748389
 22
156.6587117466485
 32
0.0
 13
61.6769005748389
 23
156.6587117466485
 33
0.0
  0
SOLID
  5
478
330
473
100
AcDbEntity
  8
1
 62
     2
100
AcDbTrace
 10
71.62690057483894
 20
156.2637542538863
 30
0.0
 11
71.62690057483894
 21
157.0536692394107
 31
0.0
 12
74.62690057483894
 22
156.6587117466485
 32
0.0
 13
74.62690057483894
 23
156.6587117466485
 33
0.0
  0
MTEXT
  5
479
330
473
100
AcDbEntity
  8
1
 62
     4
100
AcDbMText
 10
61.43190057483892
 20
159.7837117466485
 30
0.0
 40
3.0
 41
0.0
 71
     7
 72
     1
  1
\C4;12,4\C2;\H1.8;\S+0,5^  0;
  7
CONVERTER_13
 11
0.9999999999970619
 21
2.424068405545306E-6
 31
0.0
 73
     1
 44
0.60024009603842
  0
ENDBLK
  5
47B
330
473
100
AcDbEntity
  8
0
100
AcDbBlockEnd
  0
BLOCK
  5
485
330
47E
100
AcDbEntity
  8
0
100
AcDbBlockBegin
  2
*D4
 70
     1
 10
0.0
 20
0.0
 30
0.0
  3
*D4
  1

  0
LINE
  5
47F
330
47E
100
AcDbEntity
  8
1
  6
Continuous
 62
     2
100
AcDbLine
 10
177.0269005748389
 20
156.6587117466486
 30
0.0
 11
201.0269005748389
 21
156.6587117466486
 31
0.0
  0
LINE
  5
480
330
47E
100
AcDbEntity
  8
1
  6
Continuous
 62
     2
100
AcDbLine
 10
177.0269005748389
 20
141.6587117466486
 30
0.0
 11
177.0269005748389
 21
157.6587117466486
 31
0.0
  0
LINE
  5
481
330
47E
100
AcDbEntity
  8
1
  6
Continuous
 62
     2
100
AcDbLine
 10
201.0269005748389
 20
141.66017907759
 30
0.0
 11
201.0269005748389
 21
157.6587117466486
 31
0.0
  0
SOLID
  5
482
330
47E
100
AcDbEntity
  8
1
 62
     2
100
AcDbTrace
 10
180.0269005748389
 20
157.0536692394108
 30
0.0
 11
180.0269005748389
 21
156.2637542538864
 31
0.0
 12
177.0269005748389
 22
156.6587117466486
 32
0.0
 13
177.0269005748389
 23
156.6587117466486
 33
0.0
  0
SOLID
  5
483
330
47E
100
AcDbEntity
  8
1
 62
     2
100
AcDbTrace
 10
198.0269005748389
 20
156.2637542538864
 30
0.0
 11
198.0269005748389
 21
157.0536692394108
 31
0.0
 12
201.0269005748389
 22
156.6587117466486
 32
0.0
 13
201.0269005748389
 23
156.6587117466486
 33
0.0
  0
MTEXT
  5
484
330
47E
100
AcDbEntity
  8
1
 62
     4
100
AcDbMText
 10
186.7769005748389
 20
158.6587117466486
 30
0.0
 40
3.0
 41
0.0
 71
     7
 72
     1
  1
24
  7
CONVERTER_13
 11
0.9999999999970619
 21
2.424068405545306E-6
 31
0.0
 73
     1
 44
0.60024009603842
  0
ENDBLK
  5
486
330
47E
100
AcDbEntity
  8
0
100
AcDbBlockEnd
  0
BLOCK
  5
490
330
489
100
AcDbEntity
  8
0
100
AcDbBlockBegin
  2
*D5
 70
     1
 10
0.0
 20
0.0
 30
0.0
  3
*D5
  1

  0
LINE
  5
48A
330
489
100
AcDbEntity
  8
1
  6
Continuous
 62
     2
100
AcDbLine
 10
59.37690057483897
 20
112.4587117466486
 30
0.0
 11
216.2769005748388
 21
112.4587117466486
 31
0.0
  0
LINE
  5
48B
330
489
100
AcDbEntity
  8
1
  6
Continuous
 62
     2
100
AcDbLine
 10
216.2769005748388
 20
137.7087117466488
 30
0.0
 11
216.2769005748388
 21
111.4587117466486
 31
0.0
  0
LINE
  5
48C
330
489
100
AcDbEntity
  8
1
  6
Continuous
 62
     2
100
AcDbLine
 10
59.37690057483897
 20
137.7087117466488
 30
0.0
 11
59.37690057483897
 21
111.4587117466486
 31
0.0
  0
SOLID
  5
48D
330
489
100
AcDbEntity
  8
1
 62
     2
100
AcDbTrace
 10
62.37690057483897
 20
112.8536692394108
 30
0.0
 11
62.37690057483897
 21
112.0637542538864
 31
0.0
 12
59.37690057483897
 22
112.4587117466486
 32
0.0
 13
59.37690057483897
 23
112.4587117466486
 33
0.0
  0
SOLID
  5
48E
330
489
100
AcDbEntity
  8
1
 62
     2
100
AcDbTrace
 10
213.2769005748388
 20
112.0637542538864
 30
0.0
 11
213.2769005748388
 21
112.8536692394108
 31
0.0
 12
216.2769005748388
 22
112.4587117466486
 32
0.0
 13
216.2769005748388
 23
112.4587117466486
 33
0.0
  0
MTEXT
  5
48F
330
489
100
AcDbEntity
  8
1
 62
     4
100
AcDbMText
 10
122.8644005748389
 20
114.4587117466486
 30
0.0
 40
3.0
 41
0.0
 71
     7
 72
     1
  1
\C4;L (m)\C4; \U+00b150 mm
  7
CONVERTER_13
 11
0.9999999999970619
 21
2.424068405545306E-6
 31
0.0
 73
     1
 44
0.60024009603842
  0
ENDBLK
  5
491
330
489
100
AcDbEntity
  8
0
100
AcDbBlockEnd
  0
BLOCK
  5
49B
330
494
100
AcDbEntity
  8
0
100
AcDbBlockBegin
  2
*D6
 70
     1
 10
0.0
 20
0.0
 30
0.0
  3
*D6
  1

  0
LINE
  5
495
330
494
100
AcDbEntity
  8
1
  6
Continuous
 62
     2
100
AcDbLine
 10
251.2769005748387
 20
156.6587117466486
 30
0.0
 11
264.4769005748387
 21
156.6587117466486
 31
0.0
  0
LINE
  5
496
330
494
100
AcDbEntity
  8
1
  6
Continuous
 62
     2
100
AcDbLine
 10
251.2769005748387
 20
141.3087117466487
 30
0.0
 11
251.2769005748387
 21
157.6587117466486
 31
0.0
  0
LINE
  5
497
330
494
100
AcDbEntity
  8
1
  6
Continuous
 62
     2
100
AcDbLine
 10
264.4769005748387
 20
141.3087117466487
 30
0.0
 11
264.4769005748387
 21
157.6587117466486
 31
0.0
  0
SOLID
  5
498
330
494
100
AcDbEntity
  8
1
 62
     2
100
AcDbTrace
 10
254.2769005748387
 20
157.0536692394108
 30
0.0
 11
254.2769005748387
 21
156.2637542538864
 31
0.0
 12
251.2769005748387
 22
156.6587117466486
 32
0.0
 13
251.2769005748387
 23
156.6587117466486
 33
0.0
  0
SOLID
  5
499
330
494
100
AcDbEntity
  8
1
 62
     2
100
AcDbTrace
 10
261.4769005748387
 20
156.2637542538864
 30
0.0
 11
261.4769005748387
 21
157.0536692394108
 31
0.0
 12
264.4769005748387
 22
156.6587117466486
 32
0.0
 13
264.4769005748387
 23
156.6587117466486
 33
0.0
  0
MTEXT
  5
49A
330
494
100
AcDbEntity
  8
1
 62
     4
100
AcDbMText
 10
254.2019005748387
 20
158.9587117466486
 30
0.0
 40
3.0
 41
0.0
 71
     7
 72
     1
  1
13,2
  7
CONVERTER_13
 11
0.9999999999970619
 21
2.424068405545306E-6
 31
0.0
 73
     1
 44
0.60024009603842
  0
ENDBLK
  5
49C
330
494
100
AcDbEntity
  8
0
100
AcDbBlockEnd
  0
BLOCK
  5
4A6
330
49F
100
AcDbEntity
  8
0
100
AcDbBlockBegin
  2
*D7
 70
     1
 10
0.0
 20
0.0
 30
0.0
  3
*D7
  1

  0
LINE
  5
4A0
330
49F
100
AcDbEntity
  8
1
  6
Continuous
 62
     2
100
AcDbLine
 10
213.9769005748388
 20
156.6587117466485
 30
0.0
 11
201.0269005748389
 21
156.6587117466485
 31
0.0
  0
LINE
  5
4A1
330
49F
100
AcDbEntity
  8
1
  6
Continuous
 62
     2
100
AcDbLine
 10
213.9769005748388
 20
140.6087117466487
 30
0.0
 11
213.9769005748388
 21
157.6587117466485
 31
0.0
  0
LINE
  5
4A2
330
49F
100
AcDbEntity
  8
1
  6
Continuous
 62
     2
100
AcDbLine
 10
201.0269005748389
 20
141.66017907759
 30
0.0
 11
201.0269005748389
 21
157.6587117466485
 31
0.0
  0
SOLID
  5
4A3
330
49F
100
AcDbEntity
  8
1
 62
     2
100
AcDbTrace
 10
210.9769005748388
 20
156.2637542538863
 30
0.0
 11
210.9769005748388
 21
157.0536692394107
 31
0.0
 12
213.9769005748388
 22
156.6587117466485
 32
0.0
 13
213.9769005748388
 23
156.6587117466485
 33
0.0
  0
SOLID
  5
4A4
330
49F
100
AcDbEntity
  8
1
 62
     2
100
AcDbTrace
 10
204.0269005748389
 20
157.0536692394107
 30
0.0
 11
204.0269005748389
 21
156.2637542538863
 31
0.0
 12
201.0269005748389
 22
156.6587117466485
 32
0.0
 13
201.0269005748389
 23
156.6587117466485
 33
0.0
  0
MTEXT
  5
4A5
330
49F
100
AcDbEntity
  8
1
 62
     4
100
AcDbMText
 10
200.7819005748388
 20
159.7837117466485
 30
0.0
 40
3.0
 41
0.0
 71
     7
 72
     1
  1
\C4;12,4\C2;\H1.8;\S+0,5^  0;
  7
CONVERTER_13
 11
0.9999999999970619
 21
2.424068405545306E-6
 31
0.0
 73
     1
 44
0.60024009603842
  0
ENDBLK
  5
4A7
330
49F
100
AcDbEntity
  8
0
100
AcDbBlockEnd
  0
BLOCK
  5
4B1
330
4AA
100
AcDbEntity
  8
0
100
AcDbBlockBegin
  2
*D8
 70
     1
 10
0.0
 20
0.0
 30
0.0
  3
*D8
  1

  0
LINE
  5
4AB
330
4AA
100
AcDbEntity
  8
1
  6
Continuous
 62
     2
100
AcDbLine
 10
74.62690057483894
 20
156.6587117466486
 30
0.0
 11
98.62690057483894
 21
156.6587117466486
 31
0.0
  0
LINE
  5
4AC
330
4AA
100
AcDbEntity
  8
1
  6
Continuous
 62
     2
100
AcDbLine
 10
98.62690057483894
 20
141.6587117466486
 30
0.0
 11
98.62690057483894
 21
157.6587117466486
 31
0.0
  0
LINE
  5
4AD
330
4AA
100
AcDbEntity
  8
1
  6
Continuous
 62
     2
100
AcDbLine
 10
74.62690057483894
 20
141.66017907759
 30
0.0
 11
74.62690057483894
 21
157.6587117466486
 31
0.0
  0
SOLID
  5
4AE
330
4AA
100
AcDbEntity
  8
1
 62
     2
100
AcDbTrace
 10
77.62690057483894
 20
157.0536692394108
 30
0.0
 11
77.62690057483894
 21
156.2637542538864
 31
0.0
 12
74.62690057483894
 22
156.6587117466486
 32
0.0
 13
74.62690057483894
 23
156.6587117466486
 33
0.0
  0
SOLID
  5
4AF
330
4AA
100
AcDbEntity
  8
1
 62
     2
100
AcDbTrace
 10
95.62690057483894
 20
156.2637542538864
 30
0.0
 11
95.62690057483894
 21
157.0536692394108
 31
0.0
 12
98.62690057483894
 22
156.6587117466486
 32
0.0
 13
98.62690057483894
 23
156.6587117466486
 33
0.0
  0
MTEXT
  5
4B0
330
4AA
100
AcDbEntity
  8
1
 62
     4
100
AcDbMText
 10
84.37690057483894
 20
158.6587117466486
 30
0.0
 40
3.0
 41
0.0
 71
     7
 72
     1
  1
24
  7
CONVERTER_13
 11
0.9999999999970619
 21
2.424068405545306E-6
 31
0.0
 73
     1
 44
0.60024009603842
  0
ENDBLK
  5
4B2
330
4AA
100
AcDbEntity
  8
0
100
AcDbBlockEnd
  0
ENDSEC
  0
SECTION
  2
ENTITIES
  0
INSERT
  5
4F
330
1F
100
AcDbEntity
  8
0
100
AcDbBlockReference
  2
A4_oriz
 10
297.0000000000001
 20
0.0
 30
0.0
  0
LINE
  5
AB
330
1F
100
AcDbEntity
  8
0
  6
Continuous
 62
     7
100
AcDbLine
 10
94.87690057483894
 20
139.8374398130834
 30
0.0
 11
93.87690057483883
 21
139.8374398130834
 31
0.0
  0
LINE
  5
AC
330
1F
100
AcDbEntity
  8
0
  6
Continuous
 62
     7
100
AcDbLine
 10
90.37690057483894
 20
139.8374398130834
 30
0.0
 11
89.37690057483894
 21
139.8374398130834
 31
0.0
  0
LINE
  5
AD
330
1F
100
AcDbEntity
  8
0
  6
Continuous
 62
     7
100
AcDbLine
 10
94.87690057483894
 20
133.6374398130834
 30
0.0
 11
93.87690057483894
 21
133.6374398130834
 31
0.0
  0
LINE
  5
AE
330
1F
100
AcDbEntity
  8
0
  6
Continuous
 62
     7
100
AcDbLine
 10
90.37690057483894
 20
133.6374398130834
 30
0.0
 11
89.37690057483894
 21
133.6374398130834
 31
0.0
  0
LINE
  5
AF
330
1F
100
AcDbEntity
  8
0
  6
Continuous
 62
     7
100
AcDbLine
 10
92.49666099197304
 20
133.6374398130834
 30
0.0
 11
91.75706415059574
 21
133.6374398130834
 31
0.0
  0
LINE
  5
B0
330
1F
100
AcDbEntity
  8
0
  6
Continuous
 62
     7
100
AcDbLine
 10
92.62690057483894
 20
139.8374398130834
 30
0.0
 11
91.62690057483894
 21
139.8374398130834
 31
0.0
  0
LINE
  5
B1
330
1F
100
AcDbEntity
  8
0
  6
Continuous
 62
     7
100
AcDbLine
 10
97.12690057483883
 20
139.8374398130834
 30
0.0
 11
96.12690057483894
 21
139.8374398130834
 31
0.0
  0
LINE
  5
B2
330
1F
100
AcDbEntity
  8
0
  6
Continuous
 62
     7
100
AcDbLine
 10
96.99666099197316
 20
133.6374398130834
 30
0.0
 11
96.2570641505954
 21
133.6374398130834
 31
0.0
  0
LINE
  5
B3
330
1F
100
AcDbEntity
  8
0
  6
Continuous
 62
     7
100
AcDbLine
 10
87.9966609919727
 20
133.6374398130834
 30
0.0
 11
87.25706415059608
 21
133.6374398130834
 31
0.0
  0
LINE
  5
B4
330
1F
100
AcDbEntity
  8
0
  6
Continuous
 62
     7
100
AcDbLine
 10
88.12690057483883
 20
139.8374398130834
 30
0.0
 11
87.12690057483883
 21
139.8374398130834
 31
0.0
  0
LINE
  5
B5
330
1F
100
AcDbEntity
  8
0
  6
Continuous
 62
     7
100
AcDbLine
 10
87.12690057483894
 20
133.0587117466486
 30
0.0
 11
87.12690057483883
 21
133.6974419094278
 31
0.0
  0
LINE
  5
B6
330
1F
100
AcDbEntity
  8
0
  6
Continuous
 62
     7
100
AcDbLine
 10
87.12690057483883
 20
139.9199815838694
 30
0.0
 11
87.12690057483894
 21
140.5587117466486
 31
0.0
  0
LINE
  5
B7
330
1F
100
AcDbEntity
  8
0
  6
Continuous
 62
     7
100
AcDbLine
 10
74.62690057483894
 20
133.0587117466486
 30
0.0
 11
74.62690057483894
 21
140.5641394601217
 31
0.0
  0
LINE
  5
B8
330
1F
100
AcDbEntity
  8
0
  6
Continuous
 62
     7
100
AcDbLine
 10
88.32690057483887
 20
141.3587117466486
 30
0.0
 11
87.92690057483901
 21
141.3587117466486
 31
0.0
  0
LINE
  5
B9
330
1F
100
AcDbEntity
  8
0
  6
Continuous
 62
     7
100
AcDbLine
 10
87.51804608663576
 20
141.3587117466486
 30
0.0
 11
87.92690057483901
 21
141.3587117466486
 31
0.0
  0
LINE
  5
BA
330
1F
100
AcDbEntity
  8
0
  6
Continuous
 62
     7
100
AcDbLine
 10
88.32690057483887
 20
141.3587117466486
 30
0.0
 11
89.17690057483901
 21
141.3587117466486
 31
0.0
  0
LINE
  5
BB
330
1F
100
AcDbEntity
  8
0
  6
Continuous
 62
     7
100
AcDbLine
 10
87.12690057483883
 20
133.6974419094278
 30
0.0
 11
87.12690057483883
 21
139.8374398130834
 31
0.0
  0
LINE
  5
BC
330
1F
100
AcDbEntity
  8
0
  6
Continuous
 62
     7
100
AcDbLine
 10
91.82690057483887
 20
141.3587117466486
 30
0.0
 11
91.42748907911368
 21
141.3577862435691
 31
0.0
  0
LINE
  5
BD
330
1F
100
AcDbEntity
  8
0
  6
Continuous
 62
     7
100
AcDbLine
 10
90.57690057483887
 20
141.3587117466486
 30
0.0
 11
91.42748907911368
 21
141.3577862435691
 31
0.0
  0
LINE
  5
BE
330
1F
100
AcDbEntity
  8
0
  6
Continuous
 62
     7
100
AcDbLine
 10
88.12690057483894
 20
139.9199815838694
 30
0.0
 11
88.12690057483894
 21
141.1587117466486
 31
0.0
  0
LINE
  5
BF
330
1F
100
AcDbEntity
  8
0
  6
Continuous
 62
     7
100
AcDbLine
 10
86.52690057483892
 20
141.1587117466486
 30
0.0
 11
86.6015309476445
 21
141.1587117466486
 31
0.0
  0
LINE
  5
C0
330
1F
100
AcDbEntity
  8
0
  6
Continuous
 62
     7
100
AcDbLine
 10
90.37690057483894
 20
139.8374398130834
 30
0.0
 11
90.37690057483894
 21
141.1587117466486
 31
0.0
  0
LINE
  5
C1
330
1F
100
AcDbEntity
  8
0
  6
Continuous
 62
     7
100
AcDbLine
 10
86.52690057483892
 20
141.1587117466486
 30
0.0
 11
81.57278421586693
 21
141.1587117466486
 31
0.0
  0
LINE
  5
C2
330
1F
100
AcDbEntity
  8
0
  6
Continuous
 62
     7
100
AcDbLine
 10
94.67690057483901
 20
135.9087117466486
 30
0.0
 11
94.07690057483887
 21
135.9087117466486
 31
0.0
  0
LINE
  5
C3
330
1F
100
AcDbEntity
  8
0
  6
Continuous
 62
     7
100
AcDbLine
 10
94.07690057483887
 20
137.7087117466486
 30
0.0
 11
94.67690057483901
 21
137.7087117466486
 31
0.0
  0
LINE
  5
C4
330
1F
100
AcDbEntity
  8
0
  6
Continuous
 62
     7
100
AcDbLine
 10
89.57690057483887
 20
137.7087117466486
 30
0.0
 11
90.17690057483901
 21
137.7087117466486
 31
0.0
  0
LINE
  5
C5
330
1F
100
AcDbEntity
  8
0
  6
Continuous
 62
     7
100
AcDbLine
 10
90.17690057483901
 20
135.9087117466486
 30
0.0
 11
89.57690057483887
 21
135.9087117466486
 31
0.0
  0
LINE
  5
C6
330
1F
100
AcDbEntity
  8
0
  6
Continuous
 62
     7
100
AcDbLine
 10
89.37690057483894
 20
135.7087117466486
 30
0.0
 11
89.37690057483894
 21
134.2587117466486
 31
0.0
  0
LINE
  5
C7
330
1F
100
AcDbEntity
  8
0
  6
Continuous
 62
     7
100
AcDbLine
 10
89.37690057483894
 20
139.3587117466486
 30
0.0
 11
89.37690057483894
 21
137.9087117466486
 31
0.0
  0
LINE
  5
C8
330
1F
100
AcDbEntity
  8
0
  6
Continuous
 62
     7
100
AcDbLine
 10
90.37690057483894
 20
134.5087117466486
 30
0.0
 11
90.37690057483894
 21
135.7087117466486
 31
0.0
  0
LINE
  5
C9
330
1F
100
AcDbEntity
  8
0
  6
Continuous
 62
     7
100
AcDbLine
 10
90.37690057483894
 20
137.9087117466486
 30
0.0
 11
90.37690057483894
 21
139.1087117466486
 31
0.0
  0
LINE
  5
CA
330
1F
100
AcDbEntity
  8
0
  6
Continuous
 62
     7
100
AcDbLine
 10
88.12690057483894
 20
134.2587117466486
 30
0.0
 11
88.12690057483894
 21
139.3587117466486
 31
0.0
  0
LINE
  5
CB
330
1F
100
AcDbEntity
  8
0
  6
Continuous
 62
     7
100
AcDbLine
 10
93.87690057483894
 20
138.8587117466486
 30
0.0
 11
93.87690057483894
 21
137.9087117466486
 31
0.0
  0
LINE
  5
CC
330
1F
100
AcDbEntity
  8
0
  6
Continuous
 62
     7
100
AcDbLine
 10
93.87690057483894
 20
135.7087117466486
 30
0.0
 11
93.87690057483894
 21
134.7587117466486
 31
0.0
  0
LINE
  5
CD
330
1F
100
AcDbEntity
  8
0
  6
Continuous
 62
     7
100
AcDbLine
 10
91.82690057483887
 20
141.3587117466486
 30
0.0
 11
92.42690057483901
 21
141.3587117466486
 31
0.0
  0
LINE
  5
CE
330
1F
100
AcDbEntity
  8
0
  6
Continuous
 62
     7
100
AcDbLine
 10
92.82690057483887
 20
141.3587117466486
 30
0.0
 11
92.42690057483901
 21
141.3587117466486
 31
0.0
  0
LINE
  5
CF
330
1F
100
AcDbEntity
  8
0
  6
Continuous
 62
     7
100
AcDbLine
 10
92.82690057483887
 20
141.3587117466486
 30
0.0
 11
93.67690057483901
 21
141.3587117466486
 31
0.0
  0
LINE
  5
D0
330
1F
100
AcDbEntity
  8
0
  6
Continuous
 62
     7
100
AcDbLine
 10
91.62690057483894
 20
141.1587117466486
 30
0.0
 11
91.62690057483894
 21
139.9199815838694
 31
0.0
  0
LINE
  5
D1
330
1F
100
AcDbEntity
  8
0
  6
Continuous
 62
     7
100
AcDbLine
 10
92.62690057483894
 20
139.9199815838694
 30
0.0
 11
92.62690057483894
 21
141.1587117466486
 31
0.0
  0
LINE
  5
D2
330
1F
100
AcDbEntity
  8
0
  6
Continuous
 62
     7
100
AcDbLine
 10
92.62690057483894
 20
134.7587117466486
 30
0.0
 11
92.62690057483894
 21
138.8587117466486
 31
0.0
  0
LINE
  5
D3
330
1F
100
AcDbEntity
  8
0
  6
Continuous
 62
     7
100
AcDbLine
 10
91.62690057483894
 20
139.1087117466486
 30
0.0
 11
91.62690057483894
 21
134.5087117466486
 31
0.0
  0
LINE
  5
D4
330
1F
100
AcDbEntity
  8
0
  6
Continuous
 62
     7
100
AcDbLine
 10
94.87690057483894
 20
137.9087117466486
 30
0.0
 11
94.87690057483894
 21
138.6087117466486
 31
0.0
  0
LINE
  5
D5
330
1F
100
AcDbEntity
  8
0
  6
Continuous
 62
     7
100
AcDbLine
 10
94.87690057483894
 20
135.0087117466486
 30
0.0
 11
94.87690057483894
 21
135.7087117466486
 31
0.0
  0
LINE
  5
D6
330
1F
100
AcDbEntity
  8
0
  6
Continuous
 62
     7
100
AcDbLine
 10
94.87690057483894
 20
138.6087117466486
 30
0.0
 11
94.87690057483894
 21
141.1587117466486
 31
0.0
  0
LINE
  5
D7
330
1F
100
AcDbEntity
  8
0
  6
Continuous
 62
     7
100
AcDbLine
 10
96.32690057483887
 20
141.3587117466486
 30
0.0
 11
95.92748907894406
 21
141.357580576739
 31
0.0
  0
LINE
  5
D8
330
1F
100
AcDbEntity
  8
0
  6
Continuous
 62
     7
100
AcDbLine
 10
95.07690057483887
 20
141.3587117466486
 30
0.0
 11
95.92748907894406
 21
141.357580576739
 31
0.0
  0
LINE
  5
D9
330
1F
100
AcDbEntity
  8
0
  6
Continuous
 62
     7
100
AcDbLine
 10
97.32690057483887
 20
141.3587117466486
 30
0.0
 11
98.4269005748389
 21
141.3587117466486
 31
0.0
  0
LINE
  5
DA
330
1F
100
AcDbEntity
  8
0
  6
Continuous
 62
     7
100
AcDbLine
 10
96.32690057483887
 20
141.3587117466486
 30
0.0
 11
96.92690057483901
 21
141.3587117466486
 31
0.0
  0
LINE
  5
DB
330
1F
100
AcDbEntity
  8
0
  6
Continuous
 62
     7
100
AcDbLine
 10
97.32690057483887
 20
141.3587117466486
 30
0.0
 11
96.92690057483901
 21
141.3587117466486
 31
0.0
  0
LINE
  5
DC
330
1F
100
AcDbEntity
  8
0
  6
Continuous
 62
     7
100
AcDbLine
 10
96.12690057483894
 20
141.1587117466486
 30
0.0
 11
96.12690057483894
 21
139.9199815838694
 31
0.0
  0
LINE
  5
DD
330
1F
100
AcDbEntity
  8
0
  6
Continuous
 62
     7
100
AcDbLine
 10
97.12690057483883
 20
139.9199815838694
 30
0.0
 11
97.12690057483883
 21
141.1587117466486
 31
0.0
  0
LINE
  5
DE
330
1F
100
AcDbEntity
  8
0
  6
Continuous
 62
     7
100
AcDbLine
 10
96.12690057483894
 20
138.6087117466486
 30
0.0
 11
96.12690057483894
 21
135.0087117466486
 31
0.0
  0
LINE
  5
DF
330
1F
100
AcDbEntity
  8
0
  6
Continuous
 62
     7
100
AcDbLine
 10
97.12690057483883
 20
135.2587117466486
 30
0.0
 11
97.12690057483883
 21
138.3587117466486
 31
0.0
  0
LINE
  5
E0
330
1F
100
AcDbEntity
  8
0
  6
Continuous
 62
     7
100
AcDbLine
 10
74.62690057483894
 20
140.5641394601217
 30
0.0
 11
74.62690057483894
 21
141.16017907759
 31
0.0
  0
LINE
  5
E1
330
1F
100
AcDbEntity
  8
0
  6
Continuous
 62
     7
100
AcDbLine
 10
91.42690057483901
 20
132.2587117466486
 30
0.0
 11
91.82690057483887
 21
132.2587117466486
 31
0.0
  0
LINE
  5
E2
330
1F
100
AcDbEntity
  8
0
  6
Continuous
 62
     7
100
AcDbLine
 10
92.42690057483901
 20
132.2587117466486
 30
0.0
 11
91.82690057483887
 21
132.2587117466486
 31
0.0
  0
LINE
  5
E3
330
1F
100
AcDbEntity
  8
0
  6
Continuous
 62
     7
100
AcDbLine
 10
92.42690057483901
 20
132.2587117466486
 30
0.0
 11
92.82690057483887
 21
132.2587117466486
 31
0.0
  0
LINE
  5
E4
330
1F
100
AcDbEntity
  8
0
  6
Continuous
 62
     7
100
AcDbLine
 10
92.82690057483887
 20
132.2587117466486
 30
0.0
 11
93.67690057483901
 21
132.2587117466486
 31
0.0
  0
LINE
  5
E5
330
1F
100
AcDbEntity
  8
0
  6
Continuous
 62
     7
100
AcDbLine
 10
90.57748907911366
 20
132.2596372497281
 30
0.0
 11
91.42690057483901
 21
132.2587117466486
 31
0.0
  0
LINE
  5
E6
330
1F
100
AcDbEntity
  8
0
  6
Continuous
 62
     7
100
AcDbLine
 10
88.3273414739549
 20
132.2592044672615
 30
0.0
 11
89.17690057483901
 21
132.2587117466486
 31
0.0
  0
LINE
  5
E7
330
1F
100
AcDbEntity
  8
0
  6
Continuous
 62
     7
100
AcDbLine
 10
96.92690057483901
 20
132.2587117466486
 30
0.0
 11
96.32690057483887
 21
132.2587117466486
 31
0.0
  0
LINE
  5
E8
330
1F
100
AcDbEntity
  8
0
  6
Continuous
 62
     7
100
AcDbLine
 10
87.92690057483901
 20
132.2587117466486
 30
0.0
 11
87.51804608663576
 21
132.2587117466486
 31
0.0
  0
LINE
  5
E9
330
1F
100
AcDbEntity
  8
0
  6
Continuous
 62
     7
100
AcDbLine
 10
95.92690057483901
 20
132.2587117466486
 30
0.0
 11
96.32690057483887
 21
132.2587117466486
 31
0.0
  0
LINE
  5
EA
330
1F
100
AcDbEntity
  8
0
  6
Continuous
 62
     7
100
AcDbLine
 10
95.07748907894415
 20
132.2598429165582
 30
0.0
 11
95.92690057483901
 21
132.2587117466486
 31
0.0
  0
LINE
  5
EB
330
1F
100
AcDbEntity
  8
0
  6
Continuous
 62
     7
100
AcDbLine
 10
87.92690057483901
 20
132.2587117466486
 30
0.0
 11
88.3273414739549
 21
132.2592044672615
 31
0.0
  0
LINE
  5
EC
330
1F
100
AcDbEntity
  8
0
  6
Continuous
 62
     7
100
AcDbLine
 10
96.92690057483901
 20
132.2587117466486
 30
0.0
 11
97.32697377256636
 21
132.258727005472
 31
0.0
  0
LINE
  5
ED
330
1F
100
AcDbEntity
  8
0
  6
Continuous
 62
     7
100
AcDbLine
 10
97.32697377256636
 20
132.258727005472
 30
0.0
 11
98.4269005748389
 21
132.2587117466486
 31
0.0
  0
LINE
  5
EE
330
1F
100
AcDbEntity
  8
0
  6
Continuous
 62
     7
100
AcDbLine
 10
86.52690057483892
 20
132.4587117466486
 30
0.0
 11
74.62690057483894
 21
132.4587117466486
 31
0.0
  0
LINE
  5
EF
330
1F
100
AcDbEntity
  8
0
  6
Continuous
 62
     7
100
AcDbLine
 10
97.12690057483883
 20
132.4587117466486
 30
0.0
 11
97.12690057483883
 21
133.6974419094278
 31
0.0
  0
LINE
  5
F0
330
1F
100
AcDbEntity
  8
0
  6
Continuous
 62
     7
100
AcDbLine
 10
98.62690057483894
 20
135.2587117466486
 30
0.0
 11
98.62690057483894
 21
132.4587117466486
 31
0.0
  0
LINE
  5
F1
330
1F
100
AcDbEntity
  8
0
  6
Continuous
 62
     7
100
AcDbLine
 10
92.62690057483894
 20
132.4587117466486
 30
0.0
 11
92.62690057483894
 21
133.6974419094278
 31
0.0
  0
LINE
  5
F2
330
1F
100
AcDbEntity
  8
0
  6
Continuous
 62
     7
100
AcDbLine
 10
93.87690057483894
 20
134.7587117466486
 30
0.0
 11
93.87690057483883
 21
132.4587117466486
 31
0.0
  0
LINE
  5
F3
330
1F
100
AcDbEntity
  8
0
  6
Continuous
 62
     7
100
AcDbLine
 10
91.62690057483894
 20
133.6974419094278
 30
0.0
 11
91.62690057483894
 21
132.4587117466486
 31
0.0
  0
LINE
  5
F4
330
1F
100
AcDbEntity
  8
0
  6
Continuous
 62
     7
100
AcDbLine
 10
90.37690057483894
 20
132.4587117466486
 30
0.0
 11
90.37690057483894
 21
134.5087117466486
 31
0.0
  0
LINE
  5
F5
330
1F
100
AcDbEntity
  8
0
  6
Continuous
 62
     7
100
AcDbLine
 10
96.12690057483894
 20
133.6974419094278
 30
0.0
 11
96.12690057483894
 21
132.4587117466486
 31
0.0
  0
LINE
  5
F6
330
1F
100
AcDbEntity
  8
0
  6
Continuous
 62
     7
100
AcDbLine
 10
94.87690057483894
 20
132.4587117466486
 30
0.0
 11
94.87690057483894
 21
135.0087117466486
 31
0.0
  0
LINE
  5
F7
330
1F
100
AcDbEntity
  8
0
  6
Continuous
 62
     7
100
AcDbLine
 10
88.12690057483894
 20
132.4587117466486
 30
0.0
 11
88.12690057483894
 21
133.6974419094278
 31
0.0
  0
LINE
  5
F8
330
1F
100
AcDbEntity
  8
0
  6
Continuous
 62
     7
100
AcDbLine
 10
89.37690057483894
 20
134.2587117466486
 30
0.0
 11
89.37690057483894
 21
132.4587117466486
 31
0.0
  0
LINE
  5
F9
330
1F
100
AcDbEntity
  8
0
  6
Continuous
 62
     7
100
AcDbLine
 10
74.62690057483894
 20
132.4587117466486
 30
0.0
 11
74.62690057483894
 21
133.0587117466486
 31
0.0
  0
LINE
  5
FA
330
1F
100
AcDbEntity
  8
0
  6
Continuous
 62
     7
100
AcDbLine
 10
86.6015309476445
 20
132.4587117466486
 30
0.0
 11
86.52690057483892
 21
132.4587117466486
 31
0.0
  0
LINE
  5
FB
330
1F
100
AcDbEntity
  8
0
  6
Continuous
 62
     7
100
AcDbLine
 10
92.62690057483894
 20
133.6974419094278
 30
0.0
 11
92.62690057483894
 21
134.7587117466486
 31
0.0
  0
LINE
  5
FC
330
1F
100
AcDbEntity
  8
0
  6
Continuous
 62
     7
100
AcDbLine
 10
97.12690057483883
 20
133.6974419094278
 30
0.0
 11
97.12690057483883
 21
135.2587117466486
 31
0.0
  0
LINE
  5
FD
330
1F
100
AcDbEntity
  8
0
  6
Continuous
 62
     7
100
AcDbLine
 10
91.62690057483894
 20
134.5087117466486
 30
0.0
 11
91.62690057483894
 21
133.6974419094278
 31
0.0
  0
LINE
  5
FE
330
1F
100
AcDbEntity
  8
0
  6
Continuous
 62
     7
100
AcDbLine
 10
96.12690057483894
 20
135.0087117466486
 30
0.0
 11
96.12690057483894
 21
133.6974419094278
 31
0.0
  0
LINE
  5
FF
330
1F
100
AcDbEntity
  8
0
  6
Continuous
 62
     7
100
AcDbLine
 10
88.12690057483894
 20
133.6974419094278
 30
0.0
 11
88.12690057483894
 21
134.2587117466486
 31
0.0
  0
LINE
  5
100
330
1F
100
AcDbEntity
  8
0
  6
Continuous
 62
     7
100
AcDbLine
 10
92.42690057483901
 20
133.6338101733711
 30
0.0
 11
91.82690057483887
 21
133.6338101733711
 31
0.0
  0
LINE
  5
101
330
1F
100
AcDbEntity
  8
0
  6
Continuous
 62
     7
100
AcDbLine
 10
96.92690057483901
 20
133.6338101733711
 30
0.0
 11
96.32690057483887
 21
133.6338101733711
 31
0.0
  0
LINE
  5
102
330
1F
100
AcDbEntity
  8
0
  6
Continuous
 62
     7
100
AcDbLine
 10
87.92690057483901
 20
133.6338101733711
 30
0.0
 11
87.32690057483887
 21
133.6338101733711
 31
0.0
  0
LINE
  5
103
330
1F
100
AcDbEntity
  8
0
  6
Continuous
 62
     7
100
AcDbLine
 10
89.37690057483894
 20
141.1587117466486
 30
0.0
 11
89.37690057483894
 21
139.8374398130834
 31
0.0
  0
LINE
  5
104
330
1F
100
AcDbEntity
  8
0
  6
Continuous
 62
     7
100
AcDbLine
 10
93.87690057483894
 20
141.1587117466486
 30
0.0
 11
93.87690057483894
 21
138.8587117466486
 31
0.0
  0
LINE
  5
105
330
1F
100
AcDbEntity
  8
0
  6
Continuous
 62
     7
100
AcDbLine
 10
98.62690057483894
 20
141.1587117466486
 30
0.0
 11
98.62690057483894
 21
138.3587117466486
 31
0.0
  0
LINE
  5
106
330
1F
100
AcDbEntity
  8
0
  6
Continuous
 62
     7
100
AcDbLine
 10
92.62690057483894
 20
138.8587117466486
 30
0.0
 11
92.62690057483894
 21
139.9199815838694
 31
0.0
  0
LINE
  5
107
330
1F
100
AcDbEntity
  8
0
  6
Continuous
 62
     7
100
AcDbLine
 10
91.62690057483894
 20
139.9199815838694
 30
0.0
 11
91.62690057483894
 21
139.1087117466486
 31
0.0
  0
LINE
  5
108
330
1F
100
AcDbEntity
  8
0
  6
Continuous
 62
     7
100
AcDbLine
 10
97.12690057483883
 20
138.3587117466486
 30
0.0
 11
97.12690057483883
 21
139.8374398130834
 31
0.0
  0
LINE
  5
109
330
1F
100
AcDbEntity
  8
0
  6
Continuous
 62
     7
100
AcDbLine
 10
96.12690057483894
 20
139.8374398130834
 30
0.0
 11
96.12690057483894
 21
138.6087117466486
 31
0.0
  0
LINE
  5
10A
330
1F
100
AcDbEntity
  8
0
  6
Continuous
 62
     7
100
AcDbLine
 10
88.12690057483894
 20
139.3587117466486
 30
0.0
 11
88.12690057483883
 21
139.8374398130834
 31
0.0
  0
LINE
  5
10B
330
1F
100
AcDbEntity
  8
0
  6
Continuous
 62
     7
100
AcDbLine
 10
89.37690057483894
 20
139.8374398130834
 30
0.0
 11
89.37690057483894
 21
139.3587117466486
 31
0.0
  0
LINE
  5
10C
330
1F
100
AcDbEntity
  8
0
  6
Continuous
 62
     7
100
AcDbLine
 10
90.37690057483894
 20
139.1087117466486
 30
0.0
 11
90.37690057483894
 21
139.8374398130834
 31
0.0
  0
LINE
  5
10D
330
1F
100
AcDbEntity
  8
0
  6
Continuous
 62
     7
100
AcDbLine
 10
97.12690057483883
 20
139.8374398130834
 30
0.0
 11
97.12690057483883
 21
139.9199815838694
 31
0.0
  0
LINE
  5
10E
330
1F
100
AcDbEntity
  8
0
  6
Continuous
 62
     7
100
AcDbLine
 10
96.12690057483894
 20
139.9199815838694
 30
0.0
 11
96.12690057483894
 21
139.8374398130834
 31
0.0
  0
LINE
  5
10F
330
1F
100
AcDbEntity
  8
0
  6
Continuous
 62
     7
100
AcDbLine
 10
88.12690057483883
 20
139.8374398130834
 30
0.0
 11
88.12690057483894
 21
139.9199815838694
 31
0.0
  0
LINE
  5
110
330
1F
100
AcDbEntity
  8
0
  6
Continuous
 62
     7
100
AcDbLine
 10
87.12690057483883
 20
139.8374398130834
 30
0.0
 11
87.12690057483883
 21
139.9199815838694
 31
0.0
  0
LINE
  5
111
330
1F
100
AcDbEntity
  8
0
  6
Continuous
 62
     7
100
AcDbLine
 10
92.42690057483901
 20
139.9836133199261
 30
0.0
 11
91.82690057483887
 21
139.9836133199261
 31
0.0
  0
LINE
  5
112
330
1F
100
AcDbEntity
  8
0
  6
Continuous
 62
     7
100
AcDbLine
 10
87.92690057483901
 20
139.9836133199261
 30
0.0
 11
87.32690057483887
 21
139.9836133199261
 31
0.0
  0
LINE
  5
113
330
1F
100
AcDbEntity
  8
0
  6
Continuous
 62
     7
100
AcDbLine
 10
96.92690057483901
 20
139.9836133199261
 30
0.0
 11
96.32690057483887
 21
139.9836133199261
 31
0.0
  0
LINE
  5
114
330
1F
100
AcDbEntity
  8
0
  6
Continuous
 62
     7
100
AcDbLine
 10
98.62690057483894
 20
138.3587117466486
 30
0.0
 11
98.62690057483894
 21
135.2587117466486
 31
0.0
  0
LINE
  5
115
330
1F
100
AcDbEntity
  8
0
  6
Continuous
 62
     7
100
AcDbLine
 10
74.62690057483894
 20
140.1087117466488
 30
0.0
 11
64.32690057483887
 21
140.1087117466488
 31
0.0
  0
LINE
  5
116
330
1F
100
AcDbEntity
  8
0
  6
Continuous
 62
     7
100
AcDbLine
 10
64.32690057483887
 20
140.1087117466488
 30
0.0
 11
64.32690057483887
 21
139.4087117466488
 31
0.0
  0
LINE
  5
117
330
1F
100
AcDbEntity
  8
0
  6
Continuous
 62
     7
100
AcDbLine
 10
74.62690057483894
 20
134.2087117466487
 30
0.0
 11
68.82690057483887
 21
134.2087117466487
 31
0.0
  0
LINE
  5
118
330
1F
100
AcDbEntity
  8
0
  6
Continuous
 62
     7
100
AcDbLine
 10
74.62690057483894
 20
139.4087117466488
 30
0.0
 11
64.32690057483887
 21
139.4087117466488
 31
0.0
  0
LINE
  5
119
330
1F
100
AcDbEntity
  8
0
  6
Continuous
 62
     7
100
AcDbLine
 10
74.62690057483894
 20
133.5087117466487
 30
0.0
 11
68.82690057483887
 21
133.5087117466487
 31
0.0
  0
LINE
  5
11A
330
1F
100
AcDbEntity
  8
0
  6
Continuous
 62
     7
100
AcDbLine
 10
68.82690057483887
 20
134.2087117466487
 30
0.0
 11
68.82690057483887
 21
133.5087117466487
 31
0.0
  0
LINE
  5
11B
330
1F
100
AcDbEntity
  8
0
  6
Continuous
 62
     7
100
AcDbLine
 10
59.77690057483892
 20
138.2087117466488
 30
0.0
 11
59.37690057483894
 21
138.2087117466488
 31
0.0
  0
LINE
  5
11C
330
1F
100
AcDbEntity
  8
0
  6
Continuous
 62
     7
100
AcDbLine
 10
59.37690057483894
 20
140.4087117466488
 30
0.0
 11
59.37690057483894
 21
138.2087117466488
 31
0.0
  0
LINE
  5
11D
330
1F
100
AcDbEntity
  8
0
  6
Continuous
 62
     7
100
AcDbLine
 10
66.27690057483892
 20
143.0087117466488
 30
0.0
 11
65.42690057483901
 21
141.7587117466488
 31
0.0
  0
LINE
  5
11E
330
1F
100
AcDbEntity
  8
0
  6
Continuous
 62
     7
100
AcDbLine
 10
67.56690057483888
 20
142.858711746649
 30
0.0
 11
66.52690057483892
 21
142.7087117466488
 31
0.0
  0
LINE
  5
11F
330
1F
100
AcDbEntity
  8
0
  6
Continuous
 62
     7
100
AcDbLine
 10
67.56690057483888
 20
141.7087117466488
 30
0.0
 11
67.56690057483888
 21
142.858711746649
 31
0.0
  0
LINE
  5
120
330
1F
100
AcDbEntity
  8
0
  6
Continuous
 62
     7
100
AcDbLine
 10
60.50690057483894
 20
138.6587117466488
 30
0.0
 11
60.50690057483894
 21
138.2087117466488
 31
0.0
  0
LINE
  5
121
330
1F
100
AcDbEntity
  8
0
  6
Continuous
 62
     7
100
AcDbLine
 10
61.17690057483901
 20
138.6587117466488
 30
0.0
 11
61.67690057483901
 21
138.6587117466488
 31
0.0
  0
LINE
  5
122
330
1F
100
AcDbEntity
  8
0
  6
Continuous
 62
     7
100
AcDbLine
 10
60.50690057483894
 20
138.6587117466488
 30
0.0
 11
60.67690057483901
 21
138.6587117466488
 31
0.0
  0
LINE
  5
123
330
1F
100
AcDbEntity
  8
0
  6
Continuous
 62
     7
100
AcDbLine
 10
60.67690057483901
 20
138.6587117466488
 30
0.0
 11
61.17690057483901
 21
138.6587117466488
 31
0.0
  0
LINE
  5
124
330
1F
100
AcDbEntity
  8
0
  6
Continuous
 62
     7
100
AcDbLine
 10
60.67690057483901
 20
136.6087117466488
 30
0.0
 11
60.67690057483901
 21
138.6587117466488
 31
0.0
  0
LINE
  5
125
330
1F
100
AcDbEntity
  8
0
  6
Continuous
 62
     7
100
AcDbLine
 10
63.15838205632031
 20
141.4087117466488
 30
0.0
 11
60.37690057483894
 21
141.4087117466488
 31
0.0
  0
LINE
  5
126
330
1F
100
AcDbEntity
  8
0
  6
Continuous
 62
     7
100
AcDbLine
 10
63.67690057483901
 20
140.1087117466488
 30
0.0
 11
63.67690057483901
 21
140.5231598702229
 31
0.0
  0
LINE
  5
127
330
1F
100
AcDbEntity
  8
0
  6
Continuous
 62
     7
100
AcDbLine
 10
60.67690057483901
 20
134.3087117466488
 30
0.0
 11
60.67690057483901
 21
136.6087117466488
 31
0.0
  0
LINE
  5
128
330
1F
100
AcDbEntity
  8
0
  6
Continuous
 62
     7
100
AcDbLine
 10
59.77690057483892
 20
138.2087117466488
 30
0.0
 11
60.50690057483894
 21
138.2087117466488
 31
0.0
  0
LINE
  5
129
330
1F
100
AcDbEntity
  8
0
  6
Continuous
 62
     7
100
AcDbLine
 10
60.50690057483894
 20
138.2087117466488
 30
0.0
 11
60.50690057483894
 21
136.6087117466488
 31
0.0
  0
LINE
  5
12A
330
1F
100
AcDbEntity
  8
0
  6
Continuous
 62
     7
100
AcDbLine
 10
60.50690057483894
 20
136.6087117466488
 30
0.0
 11
60.67690057483901
 21
136.6087117466488
 31
0.0
  0
LINE
  5
12B
330
1F
100
AcDbEntity
  8
0
  6
Continuous
 62
     7
100
AcDbLine
 10
61.67690057483901
 20
139.6087117466488
 30
0.0
 11
61.67690057483901
 21
138.6587117466488
 31
0.0
  0
LINE
  5
12C
330
1F
100
AcDbEntity
  8
0
  6
Continuous
 62
     7
100
AcDbLine
 10
61.67690057483901
 20
140.1087117466488
 30
0.0
 11
63.67690057483901
 21
140.1087117466488
 31
0.0
  0
LINE
  5
12D
330
1F
100
AcDbEntity
  8
0
  6
Continuous
 62
     7
100
AcDbLine
 10
61.67690057483901
 20
139.6087117466488
 30
0.0
 11
61.67690057483901
 21
140.1087117466488
 31
0.0
  0
LINE
  5
12E
330
1F
100
AcDbEntity
  8
0
  6
Continuous
 62
     7
100
AcDbLine
 10
63.67690057483901
 20
140.1087117466488
 30
0.0
 11
64.32690057483887
 21
140.1087117466488
 31
0.0
  0
LINE
  5
12F
330
1F
100
AcDbEntity
  8
0
  6
Continuous
 62
     7
100
AcDbLine
 10
63.90572748917839
 20
140.8145949262433
 30
0.0
 11
67.56690057483888
 21
141.7087117466488
 31
0.0
  0
LINE
  5
130
330
1F
100
AcDbEntity
  8
0
  6
Continuous
 62
     7
100
AcDbLine
 10
65.42690057483901
 20
141.7587117466488
 30
0.0
 11
63.15838205632031
 21
141.4087117466488
 31
0.0
  0
LINE
  5
131
330
1F
100
AcDbEntity
  8
0
  6
Continuous
 62
     7
100
AcDbLine
 10
66.52690057483892
 20
142.7087117466488
 30
0.0
 11
65.42690057483901
 21
141.7587117466488
 31
0.0
  0
LINE
  5
132
330
1F
100
AcDbEntity
  8
0
  6
Continuous
 62
     7
100
AcDbLine
 10
61.47690057483897
 20
133.5087117466488
 30
0.0
 11
68.82690057483887
 21
133.5087117466487
 31
0.0
  0
LINE
  5
133
330
1F
100
AcDbEntity
  8
0
  6
Continuous
 62
     7
100
AcDbLine
 10
177.0269005748389
 20
133.6374398130834
 30
0.0
 11
152.8269005748389
 21
133.6374398130836
 31
0.0
  0
LINE
  5
134
330
1F
100
AcDbEntity
  8
0
  6
Continuous
 62
     7
100
AcDbLine
 10
177.0269005748389
 20
139.8374398130834
 30
0.0
 11
152.8269005748389
 21
139.8374398130837
 31
0.0
  0
LINE
  5
135
330
1F
100
AcDbEntity
  8
0
  6
Continuous
 62
     7
100
AcDbLine
 10
206.8269005748389
 20
133.5087117466487
 30
0.0
 11
214.1769005748388
 21
133.5087117466488
 31
0.0
  0
LINE
  5
136
330
1F
100
AcDbEntity
  8
0
  6
Continuous
 62
     7
100
AcDbLine
 10
210.2269005748389
 20
141.7587117466488
 30
0.0
 11
209.1269005748388
 21
142.7087117466488
 31
0.0
  0
LINE
  5
137
330
1F
100
AcDbEntity
  8
0
  6
Continuous
 62
     7
100
AcDbLine
 10
212.4954190933574
 20
141.4087117466488
 30
0.0
 11
210.2269005748389
 21
141.7587117466488
 31
0.0
  0
LINE
  5
138
330
1F
100
AcDbEntity
  8
0
  6
Continuous
 62
     7
100
AcDbLine
 10
208.0869005748389
 20
141.7087117466488
 30
0.0
 11
211.7480736604994
 21
140.8145949262433
 31
0.0
  0
LINE
  5
139
330
1F
100
AcDbEntity
  8
0
  6
Continuous
 62
     7
100
AcDbLine
 10
211.3269005748389
 20
140.1087117466488
 30
0.0
 11
211.9769005748389
 21
140.1087117466488
 31
0.0
  0
LINE
  5
13A
330
1F
100
AcDbEntity
  8
0
  6
Continuous
 62
     7
100
AcDbLine
 10
213.9769005748389
 20
140.1087117466488
 30
0.0
 11
213.9769005748389
 21
139.6087117466488
 31
0.0
  0
LINE
  5
13B
330
1F
100
AcDbEntity
  8
0
  6
Continuous
 62
     7
100
AcDbLine
 10
211.9769005748389
 20
140.1087117466488
 30
0.0
 11
213.9769005748389
 21
140.1087117466488
 31
0.0
  0
LINE
  5
13C
330
1F
100
AcDbEntity
  8
0
  6
Continuous
 62
     7
100
AcDbLine
 10
213.9769005748389
 20
138.6587117466488
 30
0.0
 11
213.9769005748389
 21
139.6087117466488
 31
0.0
  0
LINE
  5
13D
330
1F
100
AcDbEntity
  8
0
  6
Continuous
 62
     7
100
AcDbLine
 10
214.9769005748389
 20
136.6087117466488
 30
0.0
 11
215.1469005748388
 21
136.6087117466488
 31
0.0
  0
LINE
  5
13E
330
1F
100
AcDbEntity
  8
0
  6
Continuous
 62
     7
100
AcDbLine
 10
215.1469005748388
 20
136.6087117466488
 30
0.0
 11
215.1469005748388
 21
138.2087117466488
 31
0.0
  0
LINE
  5
13F
330
1F
100
AcDbEntity
  8
0
  6
Continuous
 62
     7
100
AcDbLine
 10
215.1469005748388
 20
138.2087117466488
 30
0.0
 11
215.8769005748388
 21
138.2087117466488
 31
0.0
  0
LINE
  5
140
330
1F
100
AcDbEntity
  8
0
  6
Continuous
 62
     7
100
AcDbLine
 10
214.9769005748389
 20
136.6087117466488
 30
0.0
 11
214.9769005748389
 21
134.3087117466488
 31
0.0
  0
LINE
  5
141
330
1F
100
AcDbEntity
  8
0
  6
Continuous
 62
     7
100
AcDbLine
 10
211.9769005748389
 20
140.5231598702229
 30
0.0
 11
211.9769005748389
 21
140.1087117466488
 31
0.0
  0
LINE
  5
142
330
1F
100
AcDbEntity
  8
0
  6
Continuous
 62
     7
100
AcDbLine
 10
215.2769005748388
 20
141.4087117466488
 30
0.0
 11
212.4954190933574
 21
141.4087117466488
 31
0.0
  0
LINE
  5
143
330
1F
100
AcDbEntity
  8
0
  6
Continuous
 62
     7
100
AcDbLine
 10
214.9769005748389
 20
138.6587117466488
 30
0.0
 11
214.9769005748389
 21
136.6087117466488
 31
0.0
  0
LINE
  5
144
330
1F
100
AcDbEntity
  8
0
  6
Continuous
 62
     7
100
AcDbLine
 10
214.4769005748389
 20
138.6587117466488
 30
0.0
 11
214.9769005748389
 21
138.6587117466488
 31
0.0
  0
LINE
  5
145
330
1F
100
AcDbEntity
  8
0
  6
Continuous
 62
     7
100
AcDbLine
 10
214.9769005748389
 20
138.6587117466488
 30
0.0
 11
215.1469005748388
 21
138.6587117466488
 31
0.0
  0
LINE
  5
146
330
1F
100
AcDbEntity
  8
0
  6
Continuous
 62
     7
100
AcDbLine
 10
213.9769005748389
 20
138.6587117466488
 30
0.0
 11
214.4769005748389
 21
138.6587117466488
 31
0.0
  0
LINE
  5
147
330
1F
100
AcDbEntity
  8
0
  6
Continuous
 62
     7
100
AcDbLine
 10
215.1469005748388
 20
138.2087117466488
 30
0.0
 11
215.1469005748388
 21
138.6587117466488
 31
0.0
  0
LINE
  5
148
330
1F
100
AcDbEntity
  8
0
  6
Continuous
 62
     7
100
AcDbLine
 10
208.0869005748389
 20
142.858711746649
 30
0.0
 11
208.0869005748389
 21
141.7087117466488
 31
0.0
  0
LINE
  5
149
330
1F
100
AcDbEntity
  8
0
  6
Continuous
 62
     7
100
AcDbLine
 10
209.1269005748388
 20
142.7087117466488
 30
0.0
 11
208.0869005748389
 21
142.858711746649
 31
0.0
  0
LINE
  5
14A
330
1F
100
AcDbEntity
  8
0
  6
Continuous
 62
     7
100
AcDbLine
 10
210.2269005748389
 20
141.7587117466488
 30
0.0
 11
209.3769005748388
 21
143.0087117466488
 31
0.0
  0
LINE
  5
14B
330
1F
100
AcDbEntity
  8
0
  6
Continuous
 62
     7
100
AcDbLine
 10
216.2769005748388
 20
138.2087117466488
 30
0.0
 11
216.2769005748388
 21
140.4087117466488
 31
0.0
  0
LINE
  5
14C
330
1F
100
AcDbEntity
  8
0
  6
Continuous
 62
     7
100
AcDbLine
 10
216.2769005748388
 20
138.2087117466488
 30
0.0
 11
215.8769005748388
 21
138.2087117466488
 31
0.0
  0
LINE
  5
14D
330
1F
100
AcDbEntity
  8
0
  6
Continuous
 62
     7
100
AcDbLine
 10
206.8269005748389
 20
133.5087117466487
 30
0.0
 11
201.0269005748389
 21
133.5087117466487
 31
0.0
  0
LINE
  5
14E
330
1F
100
AcDbEntity
  8
0
  6
Continuous
 62
     7
100
AcDbLine
 10
211.3269005748389
 20
139.4087117466488
 30
0.0
 11
201.0269005748389
 21
139.4087117466488
 31
0.0
  0
LINE
  5
14F
330
1F
100
AcDbEntity
  8
0
  6
Continuous
 62
     7
100
AcDbLine
 10
206.8269005748389
 20
134.2087117466487
 30
0.0
 11
201.0269005748389
 21
134.2087117466487
 31
0.0
  0
LINE
  5
150
330
1F
100
AcDbEntity
  8
0
  6
Continuous
 62
     7
100
AcDbLine
 10
211.3269005748389
 20
139.4087117466488
 30
0.0
 11
211.3269005748389
 21
140.1087117466488
 31
0.0
  0
LINE
  5
151
330
1F
100
AcDbEntity
  8
0
  6
Continuous
 62
     7
100
AcDbLine
 10
211.3269005748389
 20
140.1087117466488
 30
0.0
 11
201.0269005748389
 21
140.1087117466488
 31
0.0
  0
LINE
  5
152
330
1F
100
AcDbEntity
  8
0
  6
Continuous
 62
     7
100
AcDbLine
 10
177.0269005748389
 20
135.2587117466486
 30
0.0
 11
177.0269005748389
 21
138.3587117466486
 31
0.0
  0
LINE
  5
153
330
1F
100
AcDbEntity
  8
0
  6
Continuous
 62
     7
100
AcDbLine
 10
179.3269005748389
 20
139.9836133199261
 30
0.0
 11
178.7269005748389
 21
139.9836133199261
 31
0.0
  0
LINE
  5
154
330
1F
100
AcDbEntity
  8
0
  6
Continuous
 62
     7
100
AcDbLine
 10
188.3269005748389
 20
139.9836133199261
 30
0.0
 11
187.7269005748389
 21
139.9836133199261
 31
0.0
  0
LINE
  5
155
330
1F
100
AcDbEntity
  8
0
  6
Continuous
 62
     7
100
AcDbLine
 10
183.8269005748389
 20
139.9836133199261
 30
0.0
 11
183.2269005748389
 21
139.9836133199261
 31
0.0
  0
LINE
  5
156
330
1F
100
AcDbEntity
  8
0
  6
Continuous
 62
     7
100
AcDbLine
 10
188.5269005748389
 20
139.9199815838694
 30
0.0
 11
188.5269005748389
 21
139.8374398130834
 31
0.0
  0
LINE
  5
157
330
1F
100
AcDbEntity
  8
0
  6
Continuous
 62
     7
100
AcDbLine
 10
187.5269005748389
 20
139.9199815838694
 30
0.0
 11
187.5269005748389
 21
139.8374398130834
 31
0.0
  0
LINE
  5
158
330
1F
100
AcDbEntity
  8
0
  6
Continuous
 62
     7
100
AcDbLine
 10
179.5269005748389
 20
139.8374398130834
 30
0.0
 11
179.5269005748389
 21
139.9199815838694
 31
0.0
  0
LINE
  5
159
330
1F
100
AcDbEntity
  8
0
  6
Continuous
 62
     7
100
AcDbLine
 10
178.5269005748389
 20
139.9199815838694
 30
0.0
 11
178.5269005748389
 21
139.8374398130834
 31
0.0
  0
LINE
  5
15A
330
1F
100
AcDbEntity
  8
0
  6
Continuous
 62
     7
100
AcDbLine
 10
185.2769005748389
 20
139.8374398130834
 30
0.0
 11
185.2769005748389
 21
139.1087117466486
 31
0.0
  0
LINE
  5
15B
330
1F
100
AcDbEntity
  8
0
  6
Continuous
 62
     7
100
AcDbLine
 10
186.2769005748389
 20
139.3587117466486
 30
0.0
 11
186.2769005748389
 21
139.8374398130834
 31
0.0
  0
LINE
  5
15C
330
1F
100
AcDbEntity
  8
0
  6
Continuous
 62
     7
100
AcDbLine
 10
187.5269005748389
 20
139.8374398130834
 30
0.0
 11
187.5269005748389
 21
139.3587117466486
 31
0.0
  0
LINE
  5
15D
330
1F
100
AcDbEntity
  8
0
  6
Continuous
 62
     7
100
AcDbLine
 10
179.5269005748389
 20
138.6087117466486
 30
0.0
 11
179.5269005748389
 21
139.8374398130834
 31
0.0
  0
LINE
  5
15E
330
1F
100
AcDbEntity
  8
0
  6
Continuous
 62
     7
100
AcDbLine
 10
178.5269005748389
 20
139.8374398130834
 30
0.0
 11
178.5269005748389
 21
138.3587117466486
 31
0.0
  0
LINE
  5
15F
330
1F
100
AcDbEntity
  8
0
  6
Continuous
 62
     7
100
AcDbLine
 10
184.0269005748389
 20
139.1087117466486
 30
0.0
 11
184.0269005748389
 21
139.9199815838694
 31
0.0
  0
LINE
  5
160
330
1F
100
AcDbEntity
  8
0
  6
Continuous
 62
     7
100
AcDbLine
 10
183.0269005748389
 20
139.9199815838694
 30
0.0
 11
183.0269005748389
 21
138.8587117466486
 31
0.0
  0
LINE
  5
161
330
1F
100
AcDbEntity
  8
0
  6
Continuous
 62
     7
100
AcDbLine
 10
177.0269005748389
 20
138.3587117466486
 30
0.0
 11
177.0269005748389
 21
141.1587117466486
 31
0.0
  0
LINE
  5
162
330
1F
100
AcDbEntity
  8
0
  6
Continuous
 62
     7
100
AcDbLine
 10
181.7769005748389
 20
138.8587117466486
 30
0.0
 11
181.7769005748389
 21
141.1587117466486
 31
0.0
  0
LINE
  5
163
330
1F
100
AcDbEntity
  8
0
  6
Continuous
 62
     7
100
AcDbLine
 10
186.2769005748389
 20
139.8374398130834
 30
0.0
 11
186.2769005748389
 21
141.1587117466486
 31
0.0
  0
LINE
  5
164
330
1F
100
AcDbEntity
  8
0
  6
Continuous
 62
     7
100
AcDbLine
 10
188.3269005748389
 20
133.6338101733711
 30
0.0
 11
187.7269005748389
 21
133.6338101733711
 31
0.0
  0
LINE
  5
165
330
1F
100
AcDbEntity
  8
0
  6
Continuous
 62
     7
100
AcDbLine
 10
179.3269005748389
 20
133.6338101733711
 30
0.0
 11
178.7269005748389
 21
133.6338101733711
 31
0.0
  0
LINE
  5
166
330
1F
100
AcDbEntity
  8
0
  6
Continuous
 62
     7
100
AcDbLine
 10
183.8269005748389
 20
133.6338101733711
 30
0.0
 11
183.2269005748389
 21
133.6338101733711
 31
0.0
  0
LINE
  5
167
330
1F
100
AcDbEntity
  8
0
  6
Continuous
 62
     7
100
AcDbLine
 10
187.5269005748389
 20
134.2587117466486
 30
0.0
 11
187.5269005748389
 21
133.6974419094278
 31
0.0
  0
LINE
  5
168
330
1F
100
AcDbEntity
  8
0
  6
Continuous
 62
     7
100
AcDbLine
 10
179.5269005748389
 20
133.6974419094278
 30
0.0
 11
179.5269005748389
 21
135.0087117466486
 31
0.0
  0
LINE
  5
169
330
1F
100
AcDbEntity
  8
0
  6
Continuous
 62
     7
100
AcDbLine
 10
184.0269005748389
 20
133.6974419094278
 30
0.0
 11
184.0269005748389
 21
134.5087117466486
 31
0.0
  0
LINE
  5
16A
330
1F
100
AcDbEntity
  8
0
  6
Continuous
 62
     7
100
AcDbLine
 10
178.5269005748389
 20
135.2587117466486
 30
0.0
 11
178.5269005748389
 21
133.6974419094278
 31
0.0
  0
LINE
  5
16B
330
1F
100
AcDbEntity
  8
0
  6
Continuous
 62
     7
100
AcDbLine
 10
183.0269005748389
 20
134.7587117466486
 30
0.0
 11
183.0269005748389
 21
133.6974419094278
 31
0.0
  0
LINE
  5
16C
330
1F
100
AcDbEntity
  8
0
  6
Continuous
 62
     7
100
AcDbLine
 10
189.1269005748388
 20
132.4587117466486
 30
0.0
 11
189.0522702020332
 21
132.4587117466486
 31
0.0
  0
LINE
  5
16D
330
1F
100
AcDbEntity
  8
0
  6
Continuous
 62
     7
100
AcDbLine
 10
201.0269005748389
 20
133.0587117466486
 30
0.0
 11
201.0269005748389
 21
132.4587117466486
 31
0.0
  0
LINE
  5
16E
330
1F
100
AcDbEntity
  8
0
  6
Continuous
 62
     7
100
AcDbLine
 10
186.2769005748389
 20
132.4587117466486
 30
0.0
 11
186.2769005748389
 21
134.2587117466486
 31
0.0
  0
LINE
  5
16F
330
1F
100
AcDbEntity
  8
0
  6
Continuous
 62
     7
100
AcDbLine
 10
187.5269005748389
 20
133.6974419094278
 30
0.0
 11
187.5269005748389
 21
132.4587117466486
 31
0.0
  0
LINE
  5
170
330
1F
100
AcDbEntity
  8
0
  6
Continuous
 62
     7
100
AcDbLine
 10
180.7769005748389
 20
135.0087117466486
 30
0.0
 11
180.7769005748389
 21
132.4587117466486
 31
0.0
  0
LINE
  5
171
330
1F
100
AcDbEntity
  8
0
  6
Continuous
 62
     7
100
AcDbLine
 10
179.5269005748389
 20
132.4587117466486
 30
0.0
 11
179.5269005748389
 21
133.6974419094278
 31
0.0
  0
LINE
  5
172
330
1F
100
AcDbEntity
  8
0
  6
Continuous
 62
     7
100
AcDbLine
 10
185.2769005748389
 20
134.5087117466486
 30
0.0
 11
185.2769005748389
 21
132.4587117466486
 31
0.0
  0
LINE
  5
173
330
1F
100
AcDbEntity
  8
0
  6
Continuous
 62
     7
100
AcDbLine
 10
184.0269005748389
 20
132.4587117466486
 30
0.0
 11
184.0269005748389
 21
133.6974419094278
 31
0.0
  0
LINE
  5
174
330
1F
100
AcDbEntity
  8
0
  6
Continuous
 62
     7
100
AcDbLine
 10
181.7769005748389
 20
132.4587117466486
 30
0.0
 11
181.7769005748389
 21
134.7587117466486
 31
0.0
  0
LINE
  5
175
330
1F
100
AcDbEntity
  8
0
  6
Continuous
 62
     7
100
AcDbLine
 10
183.0269005748389
 20
133.6974419094278
 30
0.0
 11
183.0269005748389
 21
132.4587117466486
 31
0.0
  0
LINE
  5
176
330
1F
100
AcDbEntity
  8
0
  6
Continuous
 62
     7
100
AcDbLine
 10
177.0269005748389
 20
132.4587117466486
 30
0.0
 11
177.0269005748389
 21
135.2587117466486
 31
0.0
  0
LINE
  5
177
330
1F
100
AcDbEntity
  8
0
  6
Continuous
 62
     7
100
AcDbLine
 10
178.5269005748389
 20
133.6974419094278
 30
0.0
 11
178.5269005748389
 21
132.4587117466486
 31
0.0
  0
LINE
  5
178
330
1F
100
AcDbEntity
  8
0
  6
Continuous
 62
     7
100
AcDbLine
 10
201.0269005748389
 20
132.4587117466486
 30
0.0
 11
189.1269005748388
 21
132.4587117466486
 31
0.0
  0
LINE
  5
179
330
1F
100
AcDbEntity
  8
0
  6
Continuous
 62
     7
100
AcDbLine
 10
177.2269005748389
 20
132.2587117466486
 30
0.0
 11
178.3268273771114
 21
132.258727005472
 31
0.0
  0
LINE
  5
17A
330
1F
100
AcDbEntity
  8
0
  6
Continuous
 62
     7
100
AcDbLine
 10
178.3268273771114
 20
132.258727005472
 30
0.0
 11
178.7269005748389
 21
132.2587117466486
 31
0.0
  0
LINE
  5
17B
330
1F
100
AcDbEntity
  8
0
  6
Continuous
 62
     7
100
AcDbLine
 10
187.3264596757228
 20
132.2592044672615
 30
0.0
 11
187.7269005748389
 21
132.2587117466486
 31
0.0
  0
LINE
  5
17C
330
1F
100
AcDbEntity
  8
0
  6
Continuous
 62
     7
100
AcDbLine
 10
179.7269005748389
 20
132.2587117466486
 30
0.0
 11
180.5763120707336
 21
132.2598429165582
 31
0.0
  0
LINE
  5
17D
330
1F
100
AcDbEntity
  8
0
  6
Continuous
 62
     7
100
AcDbLine
 10
179.3269005748389
 20
132.2587117466486
 30
0.0
 11
179.7269005748389
 21
132.2587117466486
 31
0.0
  0
LINE
  5
17E
330
1F
100
AcDbEntity
  8
0
  6
Continuous
 62
     7
100
AcDbLine
 10
188.1357550630419
 20
132.2587117466486
 30
0.0
 11
187.7269005748389
 21
132.2587117466486
 31
0.0
  0
LINE
  5
17F
330
1F
100
AcDbEntity
  8
0
  6
Continuous
 62
     7
100
AcDbLine
 10
179.3269005748389
 20
132.2587117466486
 30
0.0
 11
178.7269005748389
 21
132.2587117466486
 31
0.0
  0
LINE
  5
180
330
1F
100
AcDbEntity
  8
0
  6
Continuous
 62
     7
100
AcDbLine
 10
186.4769005748389
 20
132.2587117466486
 30
0.0
 11
187.3264596757228
 21
132.2592044672615
 31
0.0
  0
LINE
  5
181
330
1F
100
AcDbEntity
  8
0
  6
Continuous
 62
     7
100
AcDbLine
 10
184.2269005748389
 20
132.2587117466486
 30
0.0
 11
185.076312070564
 21
132.2596372497281
 31
0.0
  0
LINE
  5
182
330
1F
100
AcDbEntity
  8
0
  6
Continuous
 62
     7
100
AcDbLine
 10
181.9769005748389
 20
132.2587117466486
 30
0.0
 11
182.8269005748389
 21
132.2587117466486
 31
0.0
  0
LINE
  5
183
330
1F
100
AcDbEntity
  8
0
  6
Continuous
 62
     7
100
AcDbLine
 10
182.8269005748389
 20
132.2587117466486
 30
0.0
 11
183.2269005748389
 21
132.2587117466486
 31
0.0
  0
LINE
  5
184
330
1F
100
AcDbEntity
  8
0
  6
Continuous
 62
     7
100
AcDbLine
 10
183.8269005748389
 20
132.2587117466486
 30
0.0
 11
183.2269005748389
 21
132.2587117466486
 31
0.0
  0
LINE
  5
185
330
1F
100
AcDbEntity
  8
0
  6
Continuous
 62
     7
100
AcDbLine
 10
183.8269005748389
 20
132.2587117466486
 30
0.0
 11
184.2269005748389
 21
132.2587117466486
 31
0.0
  0
LINE
  5
186
330
1F
100
AcDbEntity
  8
0
  6
Continuous
 62
     7
100
AcDbLine
 10
201.0269005748389
 20
141.16017907759
 30
0.0
 11
201.0269005748389
 21
140.5641394601217
 31
0.0
  0
LINE
  5
187
330
1F
100
AcDbEntity
  8
0
  6
Continuous
 62
     7
100
AcDbLine
 10
178.5269005748389
 20
138.3587117466486
 30
0.0
 11
178.5269005748389
 21
135.2587117466486
 31
0.0
  0
LINE
  5
188
330
1F
100
AcDbEntity
  8
0
  6
Continuous
 62
     7
100
AcDbLine
 10
179.5269005748389
 20
135.0087117466486
 30
0.0
 11
179.5269005748389
 21
138.6087117466486
 31
0.0
  0
LINE
  5
189
330
1F
100
AcDbEntity
  8
0
  6
Continuous
 62
     7
100
AcDbLine
 10
178.5269005748389
 20
141.1587117466486
 30
0.0
 11
178.5269005748389
 21
139.9199815838694
 31
0.0
  0
LINE
  5
18A
330
1F
100
AcDbEntity
  8
0
  6
Continuous
 62
     7
100
AcDbLine
 10
179.5269005748389
 20
139.9199815838694
 30
0.0
 11
179.5269005748389
 21
141.1587117466486
 31
0.0
  0
LINE
  5
18B
330
1F
100
AcDbEntity
  8
0
  6
Continuous
 62
     7
100
AcDbLine
 10
178.7269005748389
 20
141.3587117466486
 30
0.0
 11
178.3269005748389
 21
141.3587117466486
 31
0.0
  0
LINE
  5
18C
330
1F
100
AcDbEntity
  8
0
  6
Continuous
 62
     7
100
AcDbLine
 10
178.7269005748389
 20
141.3587117466486
 30
0.0
 11
179.3269005748389
 21
141.3587117466486
 31
0.0
  0
LINE
  5
18D
330
1F
100
AcDbEntity
  8
0
  6
Continuous
 62
     7
100
AcDbLine
 10
177.2269005748389
 20
141.3587117466486
 30
0.0
 11
178.3269005748389
 21
141.3587117466486
 31
0.0
  0
LINE
  5
18E
330
1F
100
AcDbEntity
  8
0
  6
Continuous
 62
     7
100
AcDbLine
 10
179.7263120707335
 20
141.357580576739
 30
0.0
 11
180.5769005748389
 21
141.3587117466486
 31
0.0
  0
LINE
  5
18F
330
1F
100
AcDbEntity
  8
0
  6
Continuous
 62
     7
100
AcDbLine
 10
179.7263120707335
 20
141.357580576739
 30
0.0
 11
179.3269005748389
 21
141.3587117466486
 31
0.0
  0
LINE
  5
190
330
1F
100
AcDbEntity
  8
0
  6
Continuous
 62
     7
100
AcDbLine
 10
180.7769005748389
 20
141.1587117466486
 30
0.0
 11
180.7769005748389
 21
138.6087117466486
 31
0.0
  0
LINE
  5
191
330
1F
100
AcDbEntity
  8
0
  6
Continuous
 62
     7
100
AcDbLine
 10
180.7769005748389
 20
135.7087117466486
 30
0.0
 11
180.7769005748389
 21
135.0087117466486
 31
0.0
  0
LINE
  5
192
330
1F
100
AcDbEntity
  8
0
  6
Continuous
 62
     7
100
AcDbLine
 10
180.7769005748389
 20
138.6087117466486
 30
0.0
 11
180.7769005748389
 21
137.9087117466486
 31
0.0
  0
LINE
  5
193
330
1F
100
AcDbEntity
  8
0
  6
Continuous
 62
     7
100
AcDbLine
 10
184.0269005748389
 20
134.5087117466486
 30
0.0
 11
184.0269005748389
 21
139.1087117466486
 31
0.0
  0
LINE
  5
194
330
1F
100
AcDbEntity
  8
0
  6
Continuous
 62
     7
100
AcDbLine
 10
183.0269005748389
 20
138.8587117466486
 30
0.0
 11
183.0269005748389
 21
134.7587117466486
 31
0.0
  0
LINE
  5
195
330
1F
100
AcDbEntity
  8
0
  6
Continuous
 62
     7
100
AcDbLine
 10
183.0269005748389
 20
141.1587117466486
 30
0.0
 11
183.0269005748389
 21
139.9199815838694
 31
0.0
  0
LINE
  5
196
330
1F
100
AcDbEntity
  8
0
  6
Continuous
 62
     7
100
AcDbLine
 10
184.0269005748389
 20
139.9199815838694
 30
0.0
 11
184.0269005748389
 21
141.1587117466486
 31
0.0
  0
LINE
  5
197
330
1F
100
AcDbEntity
  8
0
  6
Continuous
 62
     7
100
AcDbLine
 10
181.9769005748389
 20
141.3587117466486
 30
0.0
 11
182.8269005748389
 21
141.3587117466486
 31
0.0
  0
LINE
  5
198
330
1F
100
AcDbEntity
  8
0
  6
Continuous
 62
     7
100
AcDbLine
 10
183.2269005748389
 20
141.3587117466486
 30
0.0
 11
182.8269005748389
 21
141.3587117466486
 31
0.0
  0
LINE
  5
199
330
1F
100
AcDbEntity
  8
0
  6
Continuous
 62
     7
100
AcDbLine
 10
183.2269005748389
 20
141.3587117466486
 30
0.0
 11
183.8269005748389
 21
141.3587117466486
 31
0.0
  0
LINE
  5
19A
330
1F
100
AcDbEntity
  8
0
  6
Continuous
 62
     7
100
AcDbLine
 10
181.7769005748389
 20
134.7587117466486
 30
0.0
 11
181.7769005748389
 21
135.7087117466486
 31
0.0
  0
LINE
  5
19B
330
1F
100
AcDbEntity
  8
0
  6
Continuous
 62
     7
100
AcDbLine
 10
181.7769005748389
 20
137.9087117466486
 30
0.0
 11
181.7769005748389
 21
138.8587117466486
 31
0.0
  0
LINE
  5
19C
330
1F
100
AcDbEntity
  8
0
  6
Continuous
 62
     7
100
AcDbLine
 10
187.5269005748389
 20
139.3587117466486
 30
0.0
 11
187.5269005748389
 21
134.2587117466486
 31
0.0
  0
LINE
  5
19D
330
1F
100
AcDbEntity
  8
0
  6
Continuous
 62
     7
100
AcDbLine
 10
185.2769005748389
 20
139.1087117466486
 30
0.0
 11
185.2769005748389
 21
137.9087117466486
 31
0.0
  0
LINE
  5
19E
330
1F
100
AcDbEntity
  8
0
  6
Continuous
 62
     7
100
AcDbLine
 10
185.2769005748389
 20
135.7087117466486
 30
0.0
 11
185.2769005748389
 21
134.5087117466486
 31
0.0
  0
LINE
  5
19F
330
1F
100
AcDbEntity
  8
0
  6
Continuous
 62
     7
100
AcDbLine
 10
186.2769005748389
 20
137.9087117466486
 30
0.0
 11
186.2769005748389
 21
139.3587117466486
 31
0.0
  0
LINE
  5
1A0
330
1F
100
AcDbEntity
  8
0
  6
Continuous
 62
     7
100
AcDbLine
 10
186.2769005748389
 20
134.2587117466486
 30
0.0
 11
186.2769005748389
 21
135.7087117466486
 31
0.0
  0
LINE
  5
1A1
330
1F
100
AcDbEntity
  8
0
  6
Continuous
 62
     7
100
AcDbLine
 10
186.0769005748389
 20
135.9087117466486
 30
0.0
 11
185.4769005748389
 21
135.9087117466486
 31
0.0
  0
LINE
  5
1A2
330
1F
100
AcDbEntity
  8
0
  6
Continuous
 62
     7
100
AcDbLine
 10
185.4769005748389
 20
137.7087117466486
 30
0.0
 11
186.0769005748389
 21
137.7087117466486
 31
0.0
  0
LINE
  5
1A3
330
1F
100
AcDbEntity
  8
0
  6
Continuous
 62
     7
100
AcDbLine
 10
180.9769005748389
 20
137.7087117466486
 30
0.0
 11
181.5769005748389
 21
137.7087117466486
 31
0.0
  0
LINE
  5
1A4
330
1F
100
AcDbEntity
  8
0
  6
Continuous
 62
     7
100
AcDbLine
 10
181.5769005748389
 20
135.9087117466486
 30
0.0
 11
180.9769005748389
 21
135.9087117466486
 31
0.0
  0
LINE
  5
1A5
330
1F
100
AcDbEntity
  8
0
  6
Continuous
 62
     7
100
AcDbLine
 10
185.2769005748389
 20
141.1587117466486
 30
0.0
 11
185.2769005748389
 21
139.8374398130834
 31
0.0
  0
LINE
  5
1A6
330
1F
100
AcDbEntity
  8
0
  6
Continuous
 62
     7
100
AcDbLine
 10
189.0522702020332
 20
141.1587117466486
 30
0.0
 11
189.1269005748388
 21
141.1587117466486
 31
0.0
  0
LINE
  5
1A7
330
1F
100
AcDbEntity
  8
0
  6
Continuous
 62
     7
100
AcDbLine
 10
187.5269005748389
 20
141.1587117466486
 30
0.0
 11
187.5269005748389
 21
139.9199815838694
 31
0.0
  0
LINE
  5
1A8
330
1F
100
AcDbEntity
  8
0
  6
Continuous
 62
     7
100
AcDbLine
 10
184.2263120705641
 20
141.3577862435691
 30
0.0
 11
185.0769005748389
 21
141.3587117466486
 31
0.0
  0
LINE
  5
1A9
330
1F
100
AcDbEntity
  8
0
  6
Continuous
 62
     7
100
AcDbLine
 10
184.2263120705641
 20
141.3577862435691
 30
0.0
 11
183.8269005748389
 21
141.3587117466486
 31
0.0
  0
LINE
  5
1AA
330
1F
100
AcDbEntity
  8
0
  6
Continuous
 62
     7
100
AcDbLine
 10
188.5269005748389
 20
139.8374398130834
 30
0.0
 11
188.5269005748389
 21
133.6974419094278
 31
0.0
  0
LINE
  5
1AB
330
1F
100
AcDbEntity
  8
0
  6
Continuous
 62
     7
100
AcDbLine
 10
194.0810169338108
 20
141.1587117466486
 30
0.0
 11
189.1269005748388
 21
141.1587117466486
 31
0.0
  0
LINE
  5
1AC
330
1F
100
AcDbEntity
  8
0
  6
Continuous
 62
     7
100
AcDbLine
 10
186.4769005748389
 20
141.3587117466486
 30
0.0
 11
187.3269005748389
 21
141.3587117466486
 31
0.0
  0
LINE
  5
1AD
330
1F
100
AcDbEntity
  8
0
  6
Continuous
 62
     7
100
AcDbLine
 10
187.7269005748389
 20
141.3587117466486
 30
0.0
 11
188.1357550630419
 21
141.3587117466486
 31
0.0
  0
LINE
  5
1AE
330
1F
100
AcDbEntity
  8
0
  6
Continuous
 62
     7
100
AcDbLine
 10
187.7269005748389
 20
141.3587117466486
 30
0.0
 11
187.3269005748389
 21
141.3587117466486
 31
0.0
  0
LINE
  5
1AF
330
1F
100
AcDbEntity
  8
0
  6
Continuous
 62
     7
100
AcDbLine
 10
201.0269005748389
 20
140.5641394601217
 30
0.0
 11
201.0269005748389
 21
133.0587117466486
 31
0.0
  0
LINE
  5
1B0
330
1F
100
AcDbEntity
  8
0
  6
Continuous
 62
     7
100
AcDbLine
 10
188.5269005748389
 20
140.5587117466486
 30
0.0
 11
188.5269005748389
 21
139.9199815838694
 31
0.0
  0
LINE
  5
1B1
330
1F
100
AcDbEntity
  8
0
  6
Continuous
 62
     7
100
AcDbLine
 10
188.5269005748389
 20
133.6974419094278
 30
0.0
 11
188.5269005748389
 21
133.0587117466486
 31
0.0
  0
LINE
  5
1B2
330
1F
100
AcDbEntity
  8
0
  6
Continuous
 62
     7
100
AcDbLine
 10
188.5269005748389
 20
139.8374398130834
 30
0.0
 11
187.5269005748389
 21
139.8374398130834
 31
0.0
  0
LINE
  5
1B3
330
1F
100
AcDbEntity
  8
0
  6
Continuous
 62
     7
100
AcDbLine
 10
188.3967369990817
 20
133.6374398130834
 30
0.0
 11
187.657140157705
 21
133.6374398130834
 31
0.0
  0
LINE
  5
1B4
330
1F
100
AcDbEntity
  8
0
  6
Continuous
 62
     7
100
AcDbLine
 10
179.3967369990824
 20
133.6374398130834
 30
0.0
 11
178.6571401577044
 21
133.6374398130834
 31
0.0
  0
LINE
  5
1B5
330
1F
100
AcDbEntity
  8
0
  6
Continuous
 62
     7
100
AcDbLine
 10
179.5269005748389
 20
139.8374398130834
 30
0.0
 11
178.5269005748389
 21
139.8374398130834
 31
0.0
  0
LINE
  5
1B6
330
1F
100
AcDbEntity
  8
0
  6
Continuous
 62
     7
100
AcDbLine
 10
184.0269005748389
 20
139.8374398130834
 30
0.0
 11
183.0269005748389
 21
139.8374398130834
 31
0.0
  0
LINE
  5
1B7
330
1F
100
AcDbEntity
  8
0
  6
Continuous
 62
     7
100
AcDbLine
 10
183.8967369990821
 20
133.6374398130834
 30
0.0
 11
183.1571401577048
 21
133.6374398130834
 31
0.0
  0
LINE
  5
1B8
330
1F
100
AcDbEntity
  8
0
  6
Continuous
 62
     7
100
AcDbLine
 10
186.2769005748389
 20
133.6374398130834
 30
0.0
 11
185.2769005748389
 21
133.6374398130834
 31
0.0
  0
LINE
  5
1B9
330
1F
100
AcDbEntity
  8
0
  6
Continuous
 62
     7
100
AcDbLine
 10
181.7769005748389
 20
133.6374398130834
 30
0.0
 11
180.7769005748389
 21
133.6374398130834
 31
0.0
  0
LINE
  5
1BA
330
1F
100
AcDbEntity
  8
0
  6
Continuous
 62
     7
100
AcDbLine
 10
186.2769005748389
 20
139.8374398130834
 30
0.0
 11
185.2769005748389
 21
139.8374398130834
 31
0.0
  0
LINE
  5
1BB
330
1F
100
AcDbEntity
  8
0
  6
Continuous
 62
     7
100
AcDbLine
 10
181.7769005748389
 20
139.8374398130834
 30
0.0
 11
180.7769005748389
 21
139.8374398130834
 31
0.0
  0
LINE
  5
1BC
330
1F
100
AcDbEntity
  8
0
  6
Continuous
 62
     7
100
AcDbLine
 10
122.8269005748389
 20
139.8374398130837
 30
0.0
 11
98.62690057483894
 21
139.8374398130834
 31
0.0
  0
LINE
  5
1BD
330
1F
100
AcDbEntity
  8
0
  6
Continuous
 62
     7
100
AcDbLine
 10
122.8269005748389
 20
133.6374398130836
 30
0.0
 11
98.62690057483894
 21
133.6374398130834
 31
0.0
  0
LINE
  5
1BE
330
1F
100
AcDbEntity
  8
1
  6
Continuous
 62
     2
100
AcDbLine
 10
247.3069005748388
 20
127.7587117466484
 30
0.0
 11
254.3069005748388
 21
133.7087117466486
 31
0.0
  0
LINE
  5
1BF
330
1F
100
AcDbEntity
  8
1
  6
Continuous
 62
     2
100
AcDbLine
 10
250.3269005748388
 20
127.7587117466484
 30
0.0
 11
255.3269005748388
 21
133.7087117466486
 31
0.0
  0
LINE
  5
1C0
330
1F
100
AcDbEntity
  8
1
  6
Continuous
 62
     2
100
AcDbLine
 10
253.3469005748387
 20
127.7587117466484
 30
0.0
 11
256.3469005748387
 21
133.7087117466486
 31
0.0
  0
LINE
  5
1C1
330
1F
100
AcDbEntity
  8
1
  6
Continuous
 62
     2
100
AcDbLine
 10
256.3669005748387
 20
127.7587117466483
 30
0.0
 11
257.3669005748387
 21
133.7087117466486
 31
0.0
  0
LINE
  5
1C2
330
1F
100
AcDbEntity
  8
1
  6
Continuous
 62
     2
100
AcDbLine
 10
259.3869005748387
 20
127.7587117466483
 30
0.0
 11
258.3869005748387
 21
133.7087117466486
 31
0.0
  0
LINE
  5
1C3
330
1F
100
AcDbEntity
  8
1
  6
Continuous
 62
     2
100
AcDbLine
 10
262.4069005748387
 20
127.7587117466484
 30
0.0
 11
259.4069005748387
 21
133.7087117466486
 31
0.0
  0
LINE
  5
1C4
330
1F
100
AcDbEntity
  8
1
  6
Continuous
 62
     2
100
AcDbLine
 10
265.4269005748387
 20
127.7587117466484
 30
0.0
 11
260.4269005748387
 21
133.7087117466486
 31
0.0
  0
LINE
  5
1C5
330
1F
100
AcDbEntity
  8
1
  6
Continuous
 62
     2
100
AcDbLine
 10
268.4469005748387
 20
127.7587117466484
 30
0.0
 11
261.4469005748387
 21
133.7087117466486
 31
0.0
  0
LINE
  5
1C6
330
1F
100
AcDbEntity
  8
1
  6
Continuous
 62
     7
100
AcDbLine
 10
114.8269005748389
 20
50.0
 30
0.0
 11
114.8269005748389
 21
93.99999999999994
 31
0.0
  0
LINE
  5
1C7
330
1F
100
AcDbEntity
  8
1
  6
Continuous
 62
     7
100
AcDbLine
 10
160.8269005748389
 20
50.0
 30
0.0
 11
114.8269005748389
 21
50.0
 31
0.0
  0
LINE
  5
1C8
330
1F
100
AcDbEntity
  8
1
  6
Continuous
 62
     7
100
AcDbLine
 10
160.8269005748389
 20
93.99999999999994
 30
0.0
 11
160.8269005748389
 21
50.0
 31
0.0
  0
LINE
  5
1C9
330
1F
100
AcDbEntity
  8
1
  6
Continuous
 62
     7
100
AcDbLine
 10
114.8269005748389
 20
93.99999999999994
 30
0.0
 11
160.8269005748389
 21
93.99999999999994
 31
0.0
  0
LINE
  5
1CA
330
1F
100
AcDbEntity
  8
1
  6
Continuous
 62
     7
100
AcDbLine
 10
125.6269005748389
 20
54.39999999999998
 30
0.0
 11
150.0269005748389
 21
54.40000000000003
 31
0.0
  0
LINE
  5
1CB
330
1F
100
AcDbEntity
  8
1
  6
Continuous
 62
     7
100
AcDbLine
 10
125.6269005748389
 20
58.79999999999996
 30
0.0
 11
150.0269005748389
 21
58.79999999999996
 31
0.0
  0
LINE
  5
1CC
330
1F
100
AcDbEntity
  8
1
  6
Continuous
 62
     7
100
AcDbLine
 10
125.6269005748389
 20
63.19999999999993
 30
0.0
 11
150.0269005748389
 21
63.19999999999999
 31
0.0
  0
LINE
  5
1CD
330
1F
100
AcDbEntity
  8
1
  6
Continuous
 62
     7
100
AcDbLine
 10
125.6269005748389
 20
67.59999999999991
 30
0.0
 11
150.0269005748389
 21
67.59999999999991
 31
0.0
  0
LINE
  5
1CE
330
1F
100
AcDbEntity
  8
1
  6
Continuous
 62
     7
100
AcDbLine
 10
125.6269005748389
 20
71.99999999999994
 30
0.0
 11
150.0269005748389
 21
71.99999999999994
 31
0.0
  0
LINE
  5
1CF
330
1F
100
AcDbEntity
  8
1
  6
Continuous
 62
     7
100
AcDbLine
 10
125.6269005748389
 20
76.39999999999992
 30
0.0
 11
150.0269005748389
 21
76.39999999999992
 31
0.0
  0
LINE
  5
1D0
330
1F
100
AcDbEntity
  8
1
  6
Continuous
 62
     7
100
AcDbLine
 10
125.6269005748389
 20
80.79999999999995
 30
0.0
 11
150.0269005748389
 21
80.79999999999995
 31
0.0
  0
LINE
  5
1D1
330
1F
100
AcDbEntity
  8
1
  6
Continuous
 62
     7
100
AcDbLine
 10
125.6269005748389
 20
85.19999999999993
 30
0.0
 11
150.0269005748389
 21
85.19999999999993
 31
0.0
  0
LINE
  5
1D2
330
1F
100
AcDbEntity
  8
1
  6
Continuous
 62
     7
100
AcDbLine
 10
125.6269005748389
 20
89.59999999999991
 30
0.0
 11
150.0269005748389
 21
89.59999999999991
 31
0.0
  0
LINE
  5
1D3
330
1F
100
AcDbEntity
  8
0
  6
Continuous
 62
     7
100
AcDbLine
 10
206.8269005748389
 20
133.5087117466487
 30
0.0
 11
206.8269005748389
 21
134.2087117466487
 31
0.0
  0
LINE
  5
1D4
330
1F
100
AcDbEntity
  8
1
  6
Continuous
 62
     7
100
AcDbLine
 10
237.0000000000001
 20
98.0
 30
0.0
 11
267.0000000000001
 21
98.0
 31
0.0
  0
LINE
  5
1D5
330
1F
100
AcDbEntity
  8
1
  6
Continuous
 62
     7
100
AcDbLine
 10
237.0000000000001
 20
92.0
 30
0.0
 11
267.0000000000001
 21
92.0
 31
0.0
  0
LINE
  5
1D6
330
1F
100
AcDbEntity
  8
1
  6
Continuous
 62
     7
100
AcDbLine
 10
237.0000000000001
 20
86.0
 30
0.0
 11
267.0000000000001
 21
86.0
 31
0.0
  0
LINE
  5
1D7
330
1F
100
AcDbEntity
  8
1
  6
Continuous
 62
     7
100
AcDbLine
 10
237.0000000000001
 20
98.0
 30
0.0
 11
237.0000000000001
 21
92.0
 31
0.0
  0
LINE
  5
1D8
330
1F
100
AcDbEntity
  8
1
  6
Continuous
 62
     7
100
AcDbLine
 10
237.0000000000001
 20
92.0
 30
0.0
 11
237.0000000000001
 21
86.0
 31
0.0
  0
LINE
  5
1D9
330
1F
100
AcDbEntity
  8
1
  6
Continuous
 62
     7
100
AcDbLine
 10
267.0000000000001
 20
98.0
 30
0.0
 11
267.0000000000001
 21
92.0
 31
0.0
  0
LINE
  5
1DA
330
1F
100
AcDbEntity
  8
1
  6
Continuous
 62
     7
100
AcDbLine
 10
267.0000000000001
 20
98.0
 30
0.0
 11
282.0000000000001
 21
98.0
 31
0.0
  0
LINE
  5
1DB
330
1F
100
AcDbEntity
  8
1
  6
Continuous
 62
     7
100
AcDbLine
 10
267.0000000000001
 20
92.0
 30
0.0
 11
282.0000000000001
 21
92.0
 31
0.0
  0
LINE
  5
1DC
330
1F
100
AcDbEntity
  8
1
  6
Continuous
 62
     7
100
AcDbLine
 10
267.0000000000001
 20
92.0
 30
0.0
 11
267.0000000000001
 21
86.0
 31
0.0
  0
LINE
  5
1DD
330
1F
100
AcDbEntity
  8
1
  6
Continuous
 62
     7
100
AcDbLine
 10
267.0000000000001
 20
86.0
 30
0.0
 11
282.0000000000001
 21
86.0
 31
0.0
  0
LINE
  5
1DE
330
1F
100
AcDbEntity
  8
1
  6
Continuous
 62
     7
100
AcDbLine
 10
282.0000000000001
 20
98.0
 30
0.0
 11
282.0000000000001
 21
92.0
 31
0.0
  0
LINE
  5
1DF
330
1F
100
AcDbEntity
  8
1
  6
Continuous
 62
     7
100
AcDbLine
 10
282.0000000000001
 20
92.0
 30
0.0
 11
282.0000000000001
 21
86.0
 31
0.0
  0
LINE
  5
1E0
330
1F
100
AcDbEntity
  8
1
  6
Continuous
 62
     7
100
AcDbLine
 10
267.0000000000001
 20
80.0
 30
0.0
 11
282.0000000000001
 21
80.0
 31
0.0
  0
LINE
  5
1E1
330
1F
100
AcDbEntity
  8
1
  6
Continuous
 62
     7
100
AcDbLine
 10
237.0000000000001
 20
80.0
 30
0.0
 11
267.0000000000001
 21
80.0
 31
0.0
  0
LINE
  5
1E2
330
1F
100
AcDbEntity
  8
1
  6
Continuous
 62
     7
100
AcDbLine
 10
237.0000000000001
 20
74.0
 30
0.0
 11
267.0000000000001
 21
74.0
 31
0.0
  0
LINE
  5
1E3
330
1F
100
AcDbEntity
  8
1
  6
Continuous
 62
     7
100
AcDbLine
 10
267.0000000000001
 20
74.0
 30
0.0
 11
282.0000000000001
 21
74.0
 31
0.0
  0
LINE
  5
1E4
330
1F
100
AcDbEntity
  8
1
  6
Continuous
 62
     7
100
AcDbLine
 10
267.0000000000001
 20
68.0
 30
0.0
 11
282.0000000000001
 21
68.0
 31
0.0
  0
LINE
  5
1E5
330
1F
100
AcDbEntity
  8
1
  6
Continuous
 62
     7
100
AcDbLine
 10
237.0000000000001
 20
68.0
 30
0.0
 11
267.0000000000001
 21
68.0
 31
0.0
  0
LINE
  5
1E6
330
1F
100
AcDbEntity
  8
1
  6
Continuous
 62
     7
100
AcDbLine
 10
237.0000000000001
 20
86.0
 30
0.0
 11
237.0000000000001
 21
80.0
 31
0.0
  0
LINE
  5
1E7
330
1F
100
AcDbEntity
  8
1
  6
Continuous
 62
     7
100
AcDbLine
 10
237.0000000000001
 20
80.0
 30
0.0
 11
237.0000000000001
 21
74.0
 31
0.0
  0
LINE
  5
1E8
330
1F
100
AcDbEntity
  8
1
  6
Continuous
 62
     7
100
AcDbLine
 10
237.0000000000001
 20
74.0
 30
0.0
 11
237.0000000000001
 21
68.0
 31
0.0
  0
LINE
  5
1E9
330
1F
100
AcDbEntity
  8
1
  6
Continuous
 62
     7
100
AcDbLine
 10
267.0000000000001
 20
86.0
 30
0.0
 11
267.0000000000001
 21
80.0
 31
0.0
  0
LINE
  5
1EA
330
1F
100
AcDbEntity
  8
1
  6
Continuous
 62
     7
100
AcDbLine
 10
267.0000000000001
 20
80.0
 30
0.0
 11
267.0000000000001
 21
74.0
 31
0.0
  0
LINE
  5
1EB
330
1F
100
AcDbEntity
  8
1
  6
Continuous
 62
     7
100
AcDbLine
 10
267.0000000000001
 20
74.0
 30
0.0
 11
267.0000000000001
 21
68.0
 31
0.0
  0
LINE
  5
1EC
330
1F
100
AcDbEntity
  8
1
  6
Continuous
 62
     7
100
AcDbLine
 10
282.0000000000001
 20
86.0
 30
0.0
 11
282.0000000000001
 21
80.0
 31
0.0
  0
LINE
  5
1ED
330
1F
100
AcDbEntity
  8
1
  6
Continuous
 62
     7
100
AcDbLine
 10
282.0000000000001
 20
80.0
 30
0.0
 11
282.0000000000001
 21
74.0
 31
0.0
  0
LINE
  5
1EE
330
1F
100
AcDbEntity
  8
1
  6
Continuous
 62
     7
100
AcDbLine
 10
282.0000000000001
 20
74.0
 30
0.0
 11
282.0000000000001
 21
68.0
 31
0.0
  0
LINE
  5
1EF
330
1F
100
AcDbEntity
  8
1
  6
Continuous
 62
     7
100
AcDbLine
 10
237.0000000000001
 20
62.0
 30
0.0
 11
267.0000000000001
 21
62.0
 31
0.0
  0
LINE
  5
1F0
330
1F
100
AcDbEntity
  8
1
  6
Continuous
 62
     7
100
AcDbLine
 10
267.0000000000001
 20
62.0
 30
0.0
 11
282.0000000000001
 21
62.0
 31
0.0
  0
LINE
  5
1F1
330
1F
100
AcDbEntity
  8
1
  6
Continuous
 62
     7
100
AcDbLine
 10
267.0000000000001
 20
56.0
 30
0.0
 11
282.0000000000001
 21
56.0
 31
0.0
  0
LINE
  5
1F2
330
1F
100
AcDbEntity
  8
1
  6
Continuous
 62
     7
100
AcDbLine
 10
237.0000000000001
 20
56.0
 30
0.0
 11
267.0000000000001
 21
56.0
 31
0.0
  0
LINE
  5
1F3
330
1F
100
AcDbEntity
  8
1
  6
Continuous
 62
     7
100
AcDbLine
 10
237.0000000000001
 20
68.0
 30
0.0
 11
237.0000000000001
 21
62.0
 31
0.0
  0
LINE
  5
1F4
330
1F
100
AcDbEntity
  8
1
  6
Continuous
 62
     7
100
AcDbLine
 10
237.0000000000001
 20
62.0
 30
0.0
 11
237.0000000000001
 21
56.0
 31
0.0
  0
LINE
  5
1F5
330
1F
100
AcDbEntity
  8
1
  6
Continuous
 62
     7
100
AcDbLine
 10
267.0000000000001
 20
68.0
 30
0.0
 11
267.0000000000001
 21
62.0
 31
0.0
  0
LINE
  5
1F6
330
1F
100
AcDbEntity
  8
1
  6
Continuous
 62
     7
100
AcDbLine
 10
267.0000000000001
 20
62.0
 30
0.0
 11
267.0000000000001
 21
56.0
 31
0.0
  0
LINE
  5
1F7
330
1F
100
AcDbEntity
  8
1
  6
Continuous
 62
     7
100
AcDbLine
 10
282.0000000000001
 20
68.0
 30
0.0
 11
282.0000000000001
 21
62.0
 31
0.0
  0
LINE
  5
1F8
330
1F
100
AcDbEntity
  8
1
  6
Continuous
 62
     7
100
AcDbLine
 10
282.0000000000001
 20
62.0
 30
0.0
 11
282.0000000000001
 21
56.0
 31
0.0
  0
LINE
  5
1F9
330
1F
100
AcDbEntity
  8
1
  6
Continuous
 62
     7
100
AcDbLine
 10
237.0000000000001
 20
50.0
 30
0.0
 11
267.0000000000001
 21
50.0
 31
0.0
  0
LINE
  5
1FA
330
1F
100
AcDbEntity
  8
1
  6
Continuous
 62
     7
100
AcDbLine
 10
267.0000000000001
 20
50.0
 30
0.0
 11
282.0000000000001
 21
50.0
 31
0.0
  0
LINE
  5
1FB
330
1F
100
AcDbEntity
  8
1
  6
Continuous
 62
     7
100
AcDbLine
 10
237.0000000000001
 20
56.0
 30
0.0
 11
237.0000000000001
 21
50.0
 31
0.0
  0
LINE
  5
1FC
330
1F
100
AcDbEntity
  8
1
  6
Continuous
 62
     7
100
AcDbLine
 10
267.0000000000001
 20
56.0
 30
0.0
 11
267.0000000000001
 21
50.0
 31
0.0
  0
LINE
  5
1FD
330
1F
100
AcDbEntity
  8
1
  6
Continuous
 62
     7
100
AcDbLine
 10
282.0000000000001
 20
56.0
 30
0.0
 11
282.0000000000001
 21
50.0
 31
0.0
  0
LINE
  5
1FE
330
1F
100
AcDbEntity
  8
0
  6
Continuous
 62
     7
100
AcDbLine
 10
74.27690057483892
 20
144.8087117466488
 30
0.0
 11
76.21375377897795
 21
145.6739282892648
 31
0.0
  0
LINE
  5
1FF
330
1F
100
AcDbEntity
  8
0
  6
Continuous
 62
     7
100
AcDbLine
 10
74.6769005748389
 20
144.0206154905102
 30
0.0
 11
76.77690057483892
 21
144.958711746649
 31
0.0
  0
LINE
  5
200
330
1F
100
AcDbEntity
  8
0
  6
Continuous
 62
     7
100
AcDbLine
 10
76.77690057483892
 20
145.3087117466489
 30
0.0
 11
76.77690057483892
 21
144.958711746649
 31
0.0
  0
LINE
  5
201
330
1F
100
AcDbEntity
  8
0
  6
Continuous
 62
     7
100
AcDbLine
 10
67.56690057483888
 20
141.7087117466488
 30
0.0
 11
74.6769005748389
 21
144.0206154905102
 31
0.0
  0
LINE
  5
202
330
1F
100
AcDbEntity
  8
0
  6
Continuous
 62
     7
100
AcDbLine
 10
66.27690057483892
 20
143.0087117466488
 30
0.0
 11
74.27690057483892
 21
144.8087117466488
 31
0.0
  0
LINE
  5
203
330
1F
100
AcDbEntity
  8
0
  6
Continuous
 62
     7
100
AcDbLine
 10
198.8769005748389
 20
144.958711746649
 30
0.0
 11
198.8769005748389
 21
145.3087117466489
 31
0.0
  0
LINE
  5
204
330
1F
100
AcDbEntity
  8
0
  6
Continuous
 62
     7
100
AcDbLine
 10
198.8769005748389
 20
144.958711746649
 30
0.0
 11
200.9769005748389
 21
144.0206154905102
 31
0.0
  0
LINE
  5
205
330
1F
100
AcDbEntity
  8
0
  6
Continuous
 62
     7
100
AcDbLine
 10
199.4400473706999
 20
145.6739282892648
 30
0.0
 11
201.3769005748389
 21
144.8087117466488
 31
0.0
  0
LINE
  5
206
330
1F
100
AcDbEntity
  8
0
  6
Continuous
 62
     7
100
AcDbLine
 10
200.9769005748389
 20
144.0206154905102
 30
0.0
 11
208.0869005748389
 21
141.7087117466488
 31
0.0
  0
LINE
  5
207
330
1F
100
AcDbEntity
  8
0
  6
Continuous
 62
     7
100
AcDbLine
 10
201.3769005748389
 20
144.8087117466488
 30
0.0
 11
209.3769005748388
 21
143.0087117466488
 31
0.0
  0
LINE
  5
208
330
1F
100
AcDbEntity
  8
0
  6
Continuous
 62
     7
100
AcDbLine
 10
254.4819005748389
 20
134.0587117466487
 30
0.0
 11
254.4819005748389
 21
134.3580842443578
 31
0.0
  0
LINE
  5
209
330
1F
100
AcDbEntity
  8
0
  6
Continuous
 62
     7
100
AcDbLine
 10
254.4819005748389
 20
134.3580842443578
 30
0.0
 11
254.4819005748389
 21
134.5587117466487
 31
0.0
  0
LINE
  5
20A
330
1F
100
AcDbEntity
  8
0
  6
Continuous
 62
     7
100
AcDbLine
 10
254.8269005748388
 20
141.3087117466487
 30
0.0
 11
254.8269005748388
 21
141.2087117466488
 31
0.0
  0
LINE
  5
20B
330
1F
100
AcDbEntity
  8
1
  6
Continuous
 62
     7
100
AcDbLine
 10
251.7922421242335
 20
141.3087117466487
 30
0.0
 11
254.8269005748388
 21
141.3087117466487
 31
0.0
  0
LINE
  5
20C
330
1F
100
AcDbEntity
  8
0
  6
Continuous
 62
     7
100
AcDbLine
 10
260.9269005748388
 20
141.3087117466487
 30
0.0
 11
260.9269005748388
 21
141.4087117466488
 31
0.0
  0
LINE
  5
20D
330
1F
100
AcDbEntity
  8
1
  6
Continuous
 62
     7
100
AcDbLine
 10
260.9269005748388
 20
141.3087117466487
 30
0.0
 11
263.9615590254441
 21
141.3087117466487
 31
0.0
  0
LINE
  5
20E
330
1F
100
AcDbEntity
  8
0
  6
Continuous
 62
     7
100
AcDbLine
 10
258.5269005748388
 20
132.3087117466487
 30
0.0
 11
258.7384390363772
 21
132.3087117466487
 31
0.0
  0
LINE
  5
20F
330
1F
100
AcDbEntity
  8
0
  6
Continuous
 62
     7
100
AcDbLine
 10
256.6519005748388
 20
134.7287117466487
 30
0.0
 11
256.6519005748388
 21
136.4587117466488
 31
0.0
  0
LINE
  5
210
330
1F
100
AcDbEntity
  8
0
  6
Continuous
 62
     7
100
AcDbLine
 10
257.2069005748388
 20
134.9587117466488
 30
0.0
 11
257.2069005748388
 21
134.8587117466487
 31
0.0
  0
LINE
  5
211
330
1F
100
AcDbEntity
  8
0
  6
Continuous
 62
     7
100
AcDbLine
 10
257.2069005748388
 20
135.3587117466487
 30
0.0
 11
257.2069005748388
 21
134.9587117466488
 31
0.0
  0
LINE
  5
212
330
1F
100
AcDbEntity
  8
0
  6
Continuous
 62
     7
100
AcDbLine
 10
257.0619005748388
 20
136.4587117466488
 30
0.0
 11
256.8619005748388
 21
136.4587117466488
 31
0.0
  0
LINE
  5
213
330
1F
100
AcDbEntity
  8
0
  6
Continuous
 62
     7
100
AcDbLine
 10
256.8519005748389
 20
136.4587117466488
 30
0.0
 11
256.6519005748388
 21
136.4587117466488
 31
0.0
  0
LINE
  5
214
330
1F
100
AcDbEntity
  8
0
  6
Continuous
 62
     7
100
AcDbLine
 10
256.5219005748388
 20
134.8452634707867
 30
0.0
 11
256.5069005748388
 21
134.8587117466487
 31
0.0
  0
LINE
  5
215
330
1F
100
AcDbEntity
  8
0
  6
Continuous
 62
     7
100
AcDbLine
 10
256.6519005748388
 20
134.7287117466487
 30
0.0
 11
256.5219005748388
 21
134.8452634707867
 31
0.0
  0
LINE
  5
216
330
1F
100
AcDbEntity
  8
0
  6
Continuous
 62
     7
100
AcDbLine
 10
256.6519005748388
 20
134.3087117466487
 30
0.0
 11
256.6519005748388
 21
134.7287117466487
 31
0.0
  0
LINE
  5
217
330
1F
100
AcDbEntity
  8
0
  6
Continuous
 62
     7
100
AcDbLine
 10
256.6519005748388
 20
134.0087117466488
 30
0.0
 11
256.6519005748388
 21
133.7087117466488
 31
0.0
  0
LINE
  5
218
330
1F
100
AcDbEntity
  8
0
  6
Continuous
 62
     7
100
AcDbLine
 10
256.6519005748388
 20
134.3087117466487
 30
0.0
 11
256.6519005748388
 21
134.0087117466488
 31
0.0
  0
LINE
  5
219
330
1F
100
AcDbEntity
  8
0
  6
Continuous
 62
     7
100
AcDbLine
 10
256.8519005748389
 20
133.5087117466488
 30
0.0
 11
256.8619005748388
 21
133.5087117466488
 31
0.0
  0
LINE
  5
21A
330
1F
100
AcDbEntity
  8
0
  6
Continuous
 62
     7
100
AcDbLine
 10
256.0419005748388
 20
134.0087117466488
 30
0.0
 11
256.0419005748388
 21
134.3087117466487
 31
0.0
  0
LINE
  5
21B
330
1F
100
AcDbEntity
  8
0
  6
Continuous
 62
     7
100
AcDbLine
 10
256.0419005748388
 20
133.7087117466488
 30
0.0
 11
256.0419005748388
 21
134.0087117466488
 31
0.0
  0
LINE
  5
21C
330
1F
100
AcDbEntity
  8
0
  6
Continuous
 62
     7
100
AcDbLine
 10
256.6519005748388
 20
134.0087117466488
 30
0.0
 11
256.0419005748388
 21
134.0087117466488
 31
0.0
  0
LINE
  5
21D
330
1F
100
AcDbEntity
  8
0
  6
Continuous
 62
     7
100
AcDbLine
 10
256.0419005748388
 20
136.4587117466488
 30
0.0
 11
256.0419005748388
 21
134.7287117466487
 31
0.0
  0
LINE
  5
21E
330
1F
100
AcDbEntity
  8
0
  6
Continuous
 62
     7
100
AcDbLine
 10
256.0419005748388
 20
134.7287117466487
 30
0.0
 11
256.0419005748388
 21
134.3087117466487
 31
0.0
  0
LINE
  5
21F
330
1F
100
AcDbEntity
  8
0
  6
Continuous
 62
     7
100
AcDbLine
 10
256.6519005748388
 20
136.4587117466488
 30
0.0
 11
256.0419005748388
 21
136.4587117466488
 31
0.0
  0
LINE
  5
220
330
1F
100
AcDbEntity
  8
0
  6
Continuous
 62
     7
100
AcDbLine
 10
255.8419005748388
 20
133.5087117466488
 30
0.0
 11
256.7107101958698
 21
133.5087117466488
 31
0.0
  0
LINE
  5
221
330
1F
100
AcDbEntity
  8
0
  6
Continuous
 62
     7
100
AcDbLine
 10
256.7107101958698
 20
133.5087117466488
 30
0.0
 11
256.8519005748389
 21
133.5087117466488
 31
0.0
  0
LINE
  5
222
330
1F
100
AcDbEntity
  8
0
  6
Continuous
 62
     7
100
AcDbLine
 10
255.8319005748388
 20
133.5087117466488
 30
0.0
 11
255.8419005748388
 21
133.5087117466488
 31
0.0
  0
LINE
  5
223
330
1F
100
AcDbEntity
  8
0
  6
Continuous
 62
     7
100
AcDbLine
 10
256.0419005748388
 20
136.4587117466488
 30
0.0
 11
255.8419005748388
 21
136.4587117466488
 31
0.0
  0
LINE
  5
224
330
1F
100
AcDbEntity
  8
0
  6
Continuous
 62
     7
100
AcDbLine
 10
255.8319005748388
 20
136.4587117466488
 30
0.0
 11
255.6319005748388
 21
136.4587117466488
 31
0.0
  0
LINE
  5
225
330
1F
100
AcDbEntity
  8
0
  6
Continuous
 62
     7
100
AcDbLine
 10
255.6319005748388
 20
134.7287117466487
 30
0.0
 11
255.6319005748388
 21
136.4587117466488
 31
0.0
  0
LINE
  5
226
330
1F
100
AcDbEntity
  8
0
  6
Continuous
 62
     7
100
AcDbLine
 10
255.6319005748388
 20
134.3087117466487
 30
0.0
 11
255.6319005748388
 21
134.7287117466487
 31
0.0
  0
LINE
  5
227
330
1F
100
AcDbEntity
  8
0
  6
Continuous
 62
     7
100
AcDbLine
 10
255.6319005748388
 20
134.3087117466487
 30
0.0
 11
255.6319005748388
 21
134.0087117466488
 31
0.0
  0
LINE
  5
228
330
1F
100
AcDbEntity
  8
0
  6
Continuous
 62
     7
100
AcDbLine
 10
255.6319005748388
 20
134.0087117466488
 30
0.0
 11
255.6319005748388
 21
133.7087117466488
 31
0.0
  0
LINE
  5
229
330
1F
100
AcDbEntity
  8
0
  6
Continuous
 62
     7
100
AcDbLine
 10
254.8219005748388
 20
133.5087117466488
 30
0.0
 11
255.0769005748388
 21
133.5087117466488
 31
0.0
  0
LINE
  5
22A
330
1F
100
AcDbEntity
  8
0
  6
Continuous
 62
     7
100
AcDbLine
 10
255.0769005748388
 20
133.5087117466488
 30
0.0
 11
255.8319005748388
 21
133.5087117466488
 31
0.0
  0
LINE
  5
22B
330
1F
100
AcDbEntity
  8
0
  6
Continuous
 62
     7
100
AcDbLine
 10
253.7436041316477
 20
133.5087117466488
 30
0.0
 11
253.8019005748388
 21
133.5087117466488
 31
0.0
  0
LINE
  5
22C
330
1F
100
AcDbEntity
  8
0
  6
Continuous
 62
     7
100
AcDbLine
 10
253.6269005748388
 20
133.5087117466488
 30
0.0
 11
253.7436041316477
 21
133.5087117466488
 31
0.0
  0
LINE
  5
22D
330
1F
100
AcDbEntity
  8
0
  6
Continuous
 62
     7
100
AcDbLine
 10
253.4092468409644
 20
133.5087117466488
 30
0.0
 11
253.6269005748388
 21
133.5087117466488
 31
0.0
  0
LINE
  5
22E
330
1F
100
AcDbEntity
  8
0
  6
Continuous
 62
     7
100
AcDbLine
 10
253.111482995472
 20
133.5087117466488
 30
0.0
 11
253.3664348476512
 21
133.5087117466488
 31
0.0
  0
LINE
  5
22F
330
1F
100
AcDbEntity
  8
0
  6
Continuous
 62
     7
100
AcDbLine
 10
253.3664348476512
 20
133.5087117466488
 30
0.0
 11
253.4092468409644
 21
133.5087117466488
 31
0.0
  0
LINE
  5
230
330
1F
100
AcDbEntity
  8
0
  6
Continuous
 62
     7
100
AcDbLine
 10
254.8174888666831
 20
140.1087117466486
 30
0.0
 11
254.1447685716775
 21
140.1087117466487
 31
0.0
  0
LINE
  5
231
330
1F
100
AcDbEntity
  8
0
  6
Continuous
 62
     7
100
AcDbLine
 10
254.1447685716775
 20
140.1087117466487
 30
0.0
 11
253.8769005748388
 21
140.1087117466487
 31
0.0
  0
LINE
  5
232
330
1F
100
AcDbEntity
  8
0
  6
Continuous
 62
     7
100
AcDbLine
 10
254.8269005748388
 20
140.1087117466486
 30
0.0
 11
254.8174888666831
 21
140.1087117466486
 31
0.0
  0
LINE
  5
233
330
1F
100
AcDbEntity
  8
0
  6
Continuous
 62
     7
100
AcDbLine
 10
253.8769005748388
 20
140.1087117466487
 30
0.0
 11
253.3664348476512
 21
140.1087117466487
 31
0.0
  0
LINE
  5
234
330
1F
100
AcDbEntity
  8
0
  6
Continuous
 62
     7
100
AcDbLine
 10
254.04136797714
 20
133.5087117466488
 30
0.0
 11
254.8119005748388
 21
133.5087117466488
 31
0.0
  0
LINE
  5
235
330
1F
100
AcDbEntity
  8
0
  6
Continuous
 62
     7
100
AcDbLine
 10
253.8019005748388
 20
133.5087117466488
 30
0.0
 11
253.8769005748388
 21
133.5087117466488
 31
0.0
  0
LINE
  5
236
330
1F
100
AcDbEntity
  8
0
  6
Continuous
 62
     7
100
AcDbLine
 10
253.8769005748388
 20
133.5087117466488
 30
0.0
 11
254.04136797714
 21
133.5087117466488
 31
0.0
  0
LINE
  5
237
330
1F
100
AcDbEntity
  8
0
  6
Continuous
 62
     7
100
AcDbLine
 10
254.8174888666831
 20
133.5087117466488
 30
0.0
 11
254.8219005748388
 21
133.5087117466488
 31
0.0
  0
LINE
  5
238
330
1F
100
AcDbEntity
  8
0
  6
Continuous
 62
     7
100
AcDbLine
 10
254.8119005748388
 20
133.5087117466488
 30
0.0
 11
254.8174888666831
 21
133.5087117466488
 31
0.0
  0
LINE
  5
239
330
1F
100
AcDbEntity
  8
0
  6
Continuous
 62
     7
100
AcDbLine
 10
252.0369005748388
 20
138.3087117466487
 30
0.0
 11
252.0369005748388
 21
136.3087117466487
 31
0.0
  0
LINE
  5
23A
330
1F
100
AcDbEntity
  8
0
  6
Continuous
 62
     7
100
AcDbLine
 10
252.0369005748388
 20
138.6587117466488
 30
0.0
 11
252.0369005748388
 21
138.3087117466487
 31
0.0
  0
LINE
  5
23B
330
1F
100
AcDbEntity
  8
0
  6
Continuous
 62
     7
100
AcDbLine
 10
253.3664348476512
 20
140.1087117466487
 30
0.0
 11
252.5369005748388
 21
140.1087117466487
 31
0.0
  0
LINE
  5
23C
330
1F
100
AcDbEntity
  8
0
  6
Continuous
 62
     7
100
AcDbLine
 10
252.5369005748388
 20
133.5087117466488
 30
0.0
 11
253.111482995472
 21
133.5087117466488
 31
0.0
  0
LINE
  5
23D
330
1F
100
AcDbEntity
  8
0
  6
Continuous
 62
     7
100
AcDbLine
 10
259.5019005748388
 20
141.7587117466488
 30
0.0
 11
256.2519005748388
 21
141.7587117466488
 31
0.0
  0
LINE
  5
23E
330
1F
100
AcDbEntity
  8
0
  6
Continuous
 62
     7
100
AcDbLine
 10
253.4769005748389
 20
138.6587117466488
 30
0.0
 11
254.8269005748388
 21
138.6587117466488
 31
0.0
  0
LINE
  5
23F
330
1F
100
AcDbEntity
  8
0
  6
Continuous
 62
     7
100
AcDbLine
 10
254.8269005748388
 20
142.8587117466487
 30
0.0
 11
256.2519005748388
 21
142.8587117466487
 31
0.0
  0
LINE
  5
240
330
1F
100
AcDbEntity
  8
0
  6
Continuous
 62
     7
100
AcDbLine
 10
256.2519005748388
 20
143.0087117466488
 30
0.0
 11
259.5019005748388
 21
143.0087117466488
 31
0.0
  0
LINE
  5
241
330
1F
100
AcDbEntity
  8
0
  6
Continuous
 62
     7
100
AcDbLine
 10
254.8269005748388
 20
138.6587117466488
 30
0.0
 11
254.8269005748388
 21
140.1087117466486
 31
0.0
  0
LINE
  5
242
330
1F
100
AcDbEntity
  8
0
  6
Continuous
 62
     7
100
AcDbLine
 10
254.8269005748388
 20
141.7587117466488
 30
0.0
 11
254.8269005748388
 21
142.7087117466488
 31
0.0
  0
LINE
  5
243
330
1F
100
AcDbEntity
  8
0
  6
Continuous
 62
     7
100
AcDbLine
 10
254.8269005748388
 20
141.4087117466488
 30
0.0
 11
254.8269005748388
 21
141.7587117466488
 31
0.0
  0
LINE
  5
244
330
1F
100
AcDbEntity
  8
0
  6
Continuous
 62
     7
100
AcDbLine
 10
254.8269005748388
 20
140.1087117466486
 30
0.0
 11
254.8269005748388
 21
141.2087117466488
 31
0.0
  0
LINE
  5
245
330
1F
100
AcDbEntity
  8
0
  6
Continuous
 62
     7
100
AcDbLine
 10
254.8269005748388
 20
141.4087117466488
 30
0.0
 11
254.8269005748388
 21
141.3087117466487
 31
0.0
  0
LINE
  5
246
330
1F
100
AcDbEntity
  8
0
  6
Continuous
 62
     7
100
AcDbLine
 10
254.8269005748388
 20
142.7087117466488
 30
0.0
 11
254.8269005748388
 21
142.8587117466487
 31
0.0
  0
LINE
  5
247
330
1F
100
AcDbEntity
  8
0
  6
Continuous
 62
     7
100
AcDbLine
 10
256.2519005748388
 20
141.7587117466488
 30
0.0
 11
256.2519005748388
 21
142.7087117466488
 31
0.0
  0
LINE
  5
248
330
1F
100
AcDbEntity
  8
0
  6
Continuous
 62
     7
100
AcDbLine
 10
256.2519005748388
 20
142.8587117466487
 30
0.0
 11
256.2519005748388
 21
143.0087117466488
 31
0.0
  0
LINE
  5
249
330
1F
100
AcDbEntity
  8
0
  6
Continuous
 62
     7
100
AcDbLine
 10
256.2519005748388
 20
142.7087117466488
 30
0.0
 11
256.2519005748388
 21
142.8587117466487
 31
0.0
  0
LINE
  5
24A
330
1F
100
AcDbEntity
  8
0
  6
Continuous
 62
     7
100
AcDbLine
 10
254.8269005748388
 20
142.7087117466488
 30
0.0
 11
256.2519005748388
 21
142.7087117466488
 31
0.0
  0
LINE
  5
24B
330
1F
100
AcDbEntity
  8
0
  6
Continuous
 62
     7
100
AcDbLine
 10
254.8269005748388
 20
141.7587117466488
 30
0.0
 11
256.2519005748388
 21
141.7587117466488
 31
0.0
  0
LINE
  5
24C
330
1F
100
AcDbEntity
  8
0
  6
Continuous
 62
     7
100
AcDbLine
 10
259.5019005748388
 20
142.7087117466488
 30
0.0
 11
259.5019005748388
 21
141.7587117466488
 31
0.0
  0
LINE
  5
24D
330
1F
100
AcDbEntity
  8
0
  6
Continuous
 62
     7
100
AcDbLine
 10
259.5019005748388
 20
143.0087117466488
 30
0.0
 11
259.5019005748388
 21
142.8587117466487
 31
0.0
  0
LINE
  5
24E
330
1F
100
AcDbEntity
  8
0
  6
Continuous
 62
     7
100
AcDbLine
 10
259.5019005748388
 20
142.8587117466487
 30
0.0
 11
259.5019005748388
 21
142.7087117466488
 31
0.0
  0
LINE
  5
24F
330
1F
100
AcDbEntity
  8
0
  6
Continuous
 62
     7
100
AcDbLine
 10
260.9269005748388
 20
142.7087117466488
 30
0.0
 11
260.9269005748388
 21
142.8587117466487
 31
0.0
  0
LINE
  5
250
330
1F
100
AcDbEntity
  8
0
  6
Continuous
 62
     7
100
AcDbLine
 10
260.5269005748388
 20
138.2087117466488
 30
0.0
 11
260.9269005748388
 21
138.2087117466488
 31
0.0
  0
LINE
  5
251
330
1F
100
AcDbEntity
  8
0
  6
Continuous
 62
     7
100
AcDbLine
 10
260.9269005748388
 20
140.1087117466486
 30
0.0
 11
260.9269005748388
 21
138.6587117466488
 31
0.0
  0
LINE
  5
252
330
1F
100
AcDbEntity
  8
0
  6
Continuous
 62
     7
100
AcDbLine
 10
260.9269005748388
 20
138.6587117466488
 30
0.0
 11
260.9269005748388
 21
138.2087117466488
 31
0.0
  0
LINE
  5
253
330
1F
100
AcDbEntity
  8
0
  6
Continuous
 62
     7
100
AcDbLine
 10
260.9269005748388
 20
141.2087117466488
 30
0.0
 11
260.9269005748388
 21
140.1087117466486
 31
0.0
  0
LINE
  5
254
330
1F
100
AcDbEntity
  8
0
  6
Continuous
 62
     7
100
AcDbLine
 10
260.9269005748388
 20
141.4087117466488
 30
0.0
 11
260.9269005748388
 21
141.7587117466488
 31
0.0
  0
LINE
  5
255
330
1F
100
AcDbEntity
  8
0
  6
Continuous
 62
     7
100
AcDbLine
 10
260.9363122829946
 20
140.1087117466486
 30
0.0
 11
260.9269005748388
 21
140.1087117466486
 31
0.0
  0
LINE
  5
256
330
1F
100
AcDbEntity
  8
0
  6
Continuous
 62
     7
100
AcDbLine
 10
261.6090325780001
 20
140.1087117466487
 30
0.0
 11
260.9363122829946
 21
140.1087117466486
 31
0.0
  0
LINE
  5
257
330
1F
100
AcDbEntity
  8
0
  6
Continuous
 62
     7
100
AcDbLine
 10
261.8769005748388
 20
140.1087117466487
 30
0.0
 11
261.6090325780001
 21
140.1087117466487
 31
0.0
  0
LINE
  5
258
330
1F
100
AcDbEntity
  8
0
  6
Continuous
 62
     7
100
AcDbLine
 10
254.8269005748388
 20
138.2087117466488
 30
0.0
 11
254.8269005748388
 21
138.6587117466488
 31
0.0
  0
LINE
  5
259
330
1F
100
AcDbEntity
  8
0
  6
Continuous
 62
     7
100
AcDbLine
 10
254.8269005748388
 20
138.2087117466488
 30
0.0
 11
255.2269005748389
 21
138.2087117466488
 31
0.0
  0
LINE
  5
25A
330
1F
100
AcDbEntity
  8
0
  6
Continuous
 62
     7
100
AcDbLine
 10
260.5269005748388
 20
138.2087117466488
 30
0.0
 11
255.2269005748389
 21
138.2087117466488
 31
0.0
  0
LINE
  5
25B
330
1F
100
AcDbEntity
  8
0
  6
Continuous
 62
     7
100
AcDbLine
 10
253.4769005748389
 20
136.6087117466487
 30
0.0
 11
262.2769005748388
 21
136.6087117466487
 31
0.0
  0
LINE
  5
25C
330
1F
100
AcDbEntity
  8
0
  6
Continuous
 62
     7
100
AcDbLine
 10
260.9269005748388
 20
141.4087117466488
 30
0.0
 11
254.8269005748388
 21
141.4087117466488
 31
0.0
  0
LINE
  5
25D
330
1F
100
AcDbEntity
  8
0
  6
Continuous
 62
     7
100
AcDbLine
 10
260.9269005748388
 20
141.2087117466488
 30
0.0
 11
260.9269005748388
 21
141.3087117466487
 31
0.0
  0
LINE
  5
25E
330
1F
100
AcDbEntity
  8
0
  6
Continuous
 62
     7
100
AcDbLine
 10
260.9269005748388
 20
141.7587117466488
 30
0.0
 11
259.5019005748388
 21
141.7587117466488
 31
0.0
  0
LINE
  5
25F
330
1F
100
AcDbEntity
  8
0
  6
Continuous
 62
     7
100
AcDbLine
 10
260.9269005748388
 20
141.7587117466488
 30
0.0
 11
260.9269005748388
 21
142.7087117466488
 31
0.0
  0
LINE
  5
260
330
1F
100
AcDbEntity
  8
0
  6
Continuous
 62
     7
100
AcDbLine
 10
259.5019005748388
 20
142.7087117466488
 30
0.0
 11
260.9269005748388
 21
142.7087117466488
 31
0.0
  0
LINE
  5
261
330
1F
100
AcDbEntity
  8
0
  6
Continuous
 62
     7
100
AcDbLine
 10
259.5019005748388
 20
142.8587117466487
 30
0.0
 11
260.9269005748388
 21
142.8587117466487
 31
0.0
  0
LINE
  5
262
330
1F
100
AcDbEntity
  8
0
  6
Continuous
 62
     7
100
AcDbLine
 10
259.5019005748388
 20
145.7087117466488
 30
0.0
 11
256.2519005748388
 21
145.7087117466488
 31
0.0
  0
LINE
  5
263
330
1F
100
AcDbEntity
  8
0
  6
Continuous
 62
     7
100
AcDbLine
 10
259.5019005748388
 20
144.8087117466487
 30
0.0
 11
259.5019005748388
 21
145.6739282892647
 31
0.0
  0
LINE
  5
264
330
1F
100
AcDbEntity
  8
0
  6
Continuous
 62
     7
100
AcDbLine
 10
256.2519005748388
 20
144.8087117466487
 30
0.0
 11
259.5019005748388
 21
144.8087117466487
 31
0.0
  0
LINE
  5
265
330
1F
100
AcDbEntity
  8
0
  6
Continuous
 62
     7
100
AcDbLine
 10
256.2519005748388
 20
144.8087117466487
 30
0.0
 11
256.2519005748388
 21
145.6739282892647
 31
0.0
  0
LINE
  5
266
330
1F
100
AcDbEntity
  8
0
  6
Continuous
 62
     7
100
AcDbLine
 10
256.2519005748388
 20
145.7087117466488
 30
0.0
 11
256.2519005748388
 21
145.6739282892647
 31
0.0
  0
LINE
  5
267
330
1F
100
AcDbEntity
  8
0
  6
Continuous
 62
     7
100
AcDbLine
 10
259.5019005748388
 20
145.6739282892647
 30
0.0
 11
259.5019005748388
 21
145.7087117466488
 31
0.0
  0
LINE
  5
268
330
1F
100
AcDbEntity
  8
0
  6
Continuous
 62
     7
100
AcDbLine
 10
256.8619005748388
 20
133.5087117466488
 30
0.0
 11
257.8719005748388
 21
133.5087117466488
 31
0.0
  0
LINE
  5
269
330
1F
100
AcDbEntity
  8
0
  6
Continuous
 62
     7
100
AcDbLine
 10
257.6719005748388
 20
134.0087117466488
 30
0.0
 11
257.6719005748388
 21
133.7087117466488
 31
0.0
  0
LINE
  5
26A
330
1F
100
AcDbEntity
  8
0
  6
Continuous
 62
     7
100
AcDbLine
 10
258.0819005748388
 20
133.7087117466488
 30
0.0
 11
258.0819005748388
 21
134.0087117466488
 31
0.0
  0
LINE
  5
26B
330
1F
100
AcDbEntity
  8
0
  6
Continuous
 62
     7
100
AcDbLine
 10
258.0819005748388
 20
136.4587117466488
 30
0.0
 11
258.0819005748388
 21
134.7287117466487
 31
0.0
  0
LINE
  5
26C
330
1F
100
AcDbEntity
  8
0
  6
Continuous
 62
     7
100
AcDbLine
 10
258.0819005748388
 20
134.7287117466487
 30
0.0
 11
258.0819005748388
 21
134.3087117466487
 31
0.0
  0
LINE
  5
26D
330
1F
100
AcDbEntity
  8
0
  6
Continuous
 62
     7
100
AcDbLine
 10
258.0819005748388
 20
136.4587117466488
 30
0.0
 11
257.8819005748388
 21
136.4587117466488
 31
0.0
  0
LINE
  5
26E
330
1F
100
AcDbEntity
  8
0
  6
Continuous
 62
     7
100
AcDbLine
 10
257.8719005748388
 20
133.5087117466488
 30
0.0
 11
257.8819005748388
 21
133.5087117466488
 31
0.0
  0
LINE
  5
26F
330
1F
100
AcDbEntity
  8
0
  6
Continuous
 62
     7
100
AcDbLine
 10
257.8819005748388
 20
133.5087117466488
 30
0.0
 11
258.8919005748388
 21
133.5087117466488
 31
0.0
  0
LINE
  5
270
330
1F
100
AcDbEntity
  8
0
  6
Continuous
 62
     7
100
AcDbLine
 10
258.8919005748388
 20
133.5087117466488
 30
0.0
 11
258.9019005748388
 21
133.5087117466488
 31
0.0
  0
LINE
  5
271
330
1F
100
AcDbEntity
  8
0
  6
Continuous
 62
     7
100
AcDbLine
 10
259.9119005748388
 20
133.5087117466488
 30
0.0
 11
259.9219005748388
 21
133.5087117466488
 31
0.0
  0
LINE
  5
272
330
1F
100
AcDbEntity
  8
0
  6
Continuous
 62
     7
100
AcDbLine
 10
259.0430909538079
 20
133.5087117466488
 30
0.0
 11
259.9119005748388
 21
133.5087117466488
 31
0.0
  0
LINE
  5
273
330
1F
100
AcDbEntity
  8
0
  6
Continuous
 62
     7
100
AcDbLine
 10
258.9019005748388
 20
133.5087117466488
 30
0.0
 11
259.0430909538079
 21
133.5087117466488
 31
0.0
  0
LINE
  5
274
330
1F
100
AcDbEntity
  8
0
  6
Continuous
 62
     7
100
AcDbLine
 10
257.6719005748388
 20
134.7287117466487
 30
0.0
 11
257.6719005748388
 21
136.4587117466488
 31
0.0
  0
LINE
  5
275
330
1F
100
AcDbEntity
  8
0
  6
Continuous
 62
     7
100
AcDbLine
 10
257.6719005748388
 20
134.7287117466487
 30
0.0
 11
257.5419005748388
 21
134.8452634707867
 31
0.0
  0
LINE
  5
276
330
1F
100
AcDbEntity
  8
0
  6
Continuous
 62
     7
100
AcDbLine
 10
257.5269005748388
 20
134.9587117466488
 30
0.0
 11
257.5269005748388
 21
135.3587117466487
 31
0.0
  0
LINE
  5
277
330
1F
100
AcDbEntity
  8
0
  6
Continuous
 62
     7
100
AcDbLine
 10
257.5269005748388
 20
135.3587117466487
 30
0.0
 11
257.2069005748388
 21
135.3587117466487
 31
0.0
  0
LINE
  5
278
330
1F
100
AcDbEntity
  8
0
  6
Continuous
 62
     7
100
AcDbLine
 10
257.5269005748388
 20
134.9587117466488
 30
0.0
 11
257.2069005748388
 21
134.9587117466488
 31
0.0
  0
LINE
  5
279
330
1F
100
AcDbEntity
  8
0
  6
Continuous
 62
     7
100
AcDbLine
 10
257.8719005748388
 20
136.4587117466488
 30
0.0
 11
257.6719005748388
 21
136.4587117466488
 31
0.0
  0
LINE
  5
27A
330
1F
100
AcDbEntity
  8
0
  6
Continuous
 62
     7
100
AcDbLine
 10
257.5419005748388
 20
134.3580842443578
 30
0.0
 11
257.5419005748388
 21
134.5587117466487
 31
0.0
  0
LINE
  5
27B
330
1F
100
AcDbEntity
  8
0
  6
Continuous
 62
     7
100
AcDbLine
 10
257.5419005748388
 20
134.5587117466487
 30
0.0
 11
257.5419005748388
 21
134.8452634707867
 31
0.0
  0
LINE
  5
27C
330
1F
100
AcDbEntity
  8
0
  6
Continuous
 62
     7
100
AcDbLine
 10
257.5419005748388
 20
134.0587117466487
 30
0.0
 11
257.5419005748388
 21
134.3580842443578
 31
0.0
  0
LINE
  5
27D
330
1F
100
AcDbEntity
  8
0
  6
Continuous
 62
     7
100
AcDbLine
 10
257.5269005748388
 20
134.8587117466487
 30
0.0
 11
257.5269005748388
 21
134.9587117466488
 31
0.0
  0
LINE
  5
27E
330
1F
100
AcDbEntity
  8
0
  6
Continuous
 62
     7
100
AcDbLine
 10
257.5419005748388
 20
134.8452634707867
 30
0.0
 11
257.5269005748388
 21
134.8587117466487
 31
0.0
  0
LINE
  5
27F
330
1F
100
AcDbEntity
  8
0
  6
Continuous
 62
     7
100
AcDbLine
 10
257.6719005748388
 20
134.3087117466487
 30
0.0
 11
257.6719005748388
 21
134.7287117466487
 31
0.0
  0
LINE
  5
280
330
1F
100
AcDbEntity
  8
0
  6
Continuous
 62
     7
100
AcDbLine
 10
257.1919005748388
 20
134.0587117466487
 30
0.0
 11
257.1919005748388
 21
134.3580842443578
 31
0.0
  0
LINE
  5
281
330
1F
100
AcDbEntity
  8
0
  6
Continuous
 62
     7
100
AcDbLine
 10
257.5419005748388
 20
134.0587117466487
 30
0.0
 11
257.1919005748388
 21
134.0587117466487
 31
0.0
  0
LINE
  5
282
330
1F
100
AcDbEntity
  8
0
  6
Continuous
 62
     7
100
AcDbLine
 10
257.5419005748388
 20
134.5587117466487
 30
0.0
 11
257.1919005748388
 21
134.5587117466487
 31
0.0
  0
LINE
  5
283
330
1F
100
AcDbEntity
  8
0
  6
Continuous
 62
     7
100
AcDbLine
 10
257.1919005748388
 20
134.3580842443578
 30
0.0
 11
257.1919005748388
 21
134.5587117466487
 31
0.0
  0
LINE
  5
284
330
1F
100
AcDbEntity
  8
0
  6
Continuous
 62
     7
100
AcDbLine
 10
257.1919005748388
 20
134.8452634707867
 30
0.0
 11
257.2069005748388
 21
134.8587117466487
 31
0.0
  0
LINE
  5
285
330
1F
100
AcDbEntity
  8
0
  6
Continuous
 62
     7
100
AcDbLine
 10
257.1919005748388
 20
134.5587117466487
 30
0.0
 11
257.1919005748388
 21
134.8452634707867
 31
0.0
  0
LINE
  5
286
330
1F
100
AcDbEntity
  8
0
  6
Continuous
 62
     7
100
AcDbLine
 10
257.0619005748388
 20
134.7287117466487
 30
0.0
 11
257.1919005748388
 21
134.8452634707867
 31
0.0
  0
LINE
  5
287
330
1F
100
AcDbEntity
  8
0
  6
Continuous
 62
     7
100
AcDbLine
 10
257.0619005748388
 20
136.4587117466488
 30
0.0
 11
257.0619005748388
 21
134.7287117466487
 31
0.0
  0
LINE
  5
288
330
1F
100
AcDbEntity
  8
0
  6
Continuous
 62
     7
100
AcDbLine
 10
257.0619005748388
 20
134.7287117466487
 30
0.0
 11
257.0619005748388
 21
134.3087117466487
 31
0.0
  0
LINE
  5
289
330
1F
100
AcDbEntity
  8
0
  6
Continuous
 62
     7
100
AcDbLine
 10
257.6719005748388
 20
136.4587117466488
 30
0.0
 11
257.0619005748388
 21
136.4587117466488
 31
0.0
  0
LINE
  5
28A
330
1F
100
AcDbEntity
  8
0
  6
Continuous
 62
     7
100
AcDbLine
 10
257.0619005748388
 20
133.7087117466488
 30
0.0
 11
257.0619005748388
 21
134.0087117466488
 31
0.0
  0
LINE
  5
28B
330
1F
100
AcDbEntity
  8
0
  6
Continuous
 62
     7
100
AcDbLine
 10
257.0619005748388
 20
134.0087117466488
 30
0.0
 11
257.0619005748388
 21
134.3087117466487
 31
0.0
  0
LINE
  5
28C
330
1F
100
AcDbEntity
  8
0
  6
Continuous
 62
     7
100
AcDbLine
 10
257.6719005748388
 20
134.0087117466488
 30
0.0
 11
257.0619005748388
 21
134.0087117466488
 31
0.0
  0
LINE
  5
28D
330
1F
100
AcDbEntity
  8
0
  6
Continuous
 62
     7
100
AcDbLine
 10
257.6719005748388
 20
134.3087117466487
 30
0.0
 11
257.6719005748388
 21
134.0087117466488
 31
0.0
  0
LINE
  5
28E
330
1F
100
AcDbEntity
  8
0
  6
Continuous
 62
     7
100
AcDbLine
 10
259.1019005748389
 20
136.4587117466488
 30
0.0
 11
259.1019005748389
 21
134.7287117466487
 31
0.0
  0
LINE
  5
28F
330
1F
100
AcDbEntity
  8
0
  6
Continuous
 62
     7
100
AcDbLine
 10
259.2469005748388
 20
135.3587117466487
 30
0.0
 11
259.2469005748388
 21
134.9587117466488
 31
0.0
  0
LINE
  5
290
330
1F
100
AcDbEntity
  8
0
  6
Continuous
 62
     7
100
AcDbLine
 10
259.5669005748388
 20
134.9587117466488
 30
0.0
 11
259.2469005748388
 21
134.9587117466488
 31
0.0
  0
LINE
  5
291
330
1F
100
AcDbEntity
  8
0
  6
Continuous
 62
     7
100
AcDbLine
 10
258.5469005748388
 20
134.9587117466488
 30
0.0
 11
258.5469005748388
 21
135.3587117466487
 31
0.0
  0
LINE
  5
292
330
1F
100
AcDbEntity
  8
0
  6
Continuous
 62
     7
100
AcDbLine
 10
259.1019005748389
 20
136.4587117466488
 30
0.0
 11
258.9019005748388
 21
136.4587117466488
 31
0.0
  0
LINE
  5
293
330
1F
100
AcDbEntity
  8
0
  6
Continuous
 62
     7
100
AcDbLine
 10
259.5819005748388
 20
134.5587117466487
 30
0.0
 11
259.2319005748389
 21
134.5587117466487
 31
0.0
  0
LINE
  5
294
330
1F
100
AcDbEntity
  8
0
  6
Continuous
 62
     7
100
AcDbLine
 10
259.2319005748389
 20
134.8452634707867
 30
0.0
 11
259.2469005748388
 21
134.8587117466487
 31
0.0
  0
LINE
  5
295
330
1F
100
AcDbEntity
  8
0
  6
Continuous
 62
     7
100
AcDbLine
 10
259.2319005748389
 20
134.5587117466487
 30
0.0
 11
259.2319005748389
 21
134.8452634707867
 31
0.0
  0
LINE
  5
296
330
1F
100
AcDbEntity
  8
0
  6
Continuous
 62
     7
100
AcDbLine
 10
259.1019005748389
 20
134.7287117466487
 30
0.0
 11
259.2319005748389
 21
134.8452634707867
 31
0.0
  0
LINE
  5
297
330
1F
100
AcDbEntity
  8
0
  6
Continuous
 62
     7
100
AcDbLine
 10
258.5619005748388
 20
134.3580842443578
 30
0.0
 11
258.5619005748388
 21
134.5587117466487
 31
0.0
  0
LINE
  5
298
330
1F
100
AcDbEntity
  8
0
  6
Continuous
 62
     7
100
AcDbLine
 10
259.5669005748388
 20
134.8587117466487
 30
0.0
 11
259.5669005748388
 21
134.9587117466488
 31
0.0
  0
LINE
  5
299
330
1F
100
AcDbEntity
  8
0
  6
Continuous
 62
     7
100
AcDbLine
 10
259.5669005748388
 20
134.9587117466488
 30
0.0
 11
259.5669005748388
 21
135.3587117466487
 31
0.0
  0
LINE
  5
29A
330
1F
100
AcDbEntity
  8
0
  6
Continuous
 62
     7
100
AcDbLine
 10
259.5819005748388
 20
134.5587117466487
 30
0.0
 11
259.5819005748388
 21
134.8452634707867
 31
0.0
  0
LINE
  5
29B
330
1F
100
AcDbEntity
  8
0
  6
Continuous
 62
     7
100
AcDbLine
 10
259.2469005748388
 20
134.9587117466488
 30
0.0
 11
259.2469005748388
 21
134.8587117466487
 31
0.0
  0
LINE
  5
29C
330
1F
100
AcDbEntity
  8
0
  6
Continuous
 62
     7
100
AcDbLine
 10
259.2319005748389
 20
134.3580842443578
 30
0.0
 11
259.2319005748389
 21
134.5587117466487
 31
0.0
  0
LINE
  5
29D
330
1F
100
AcDbEntity
  8
0
  6
Continuous
 62
     7
100
AcDbLine
 10
259.5669005748388
 20
135.3587117466487
 30
0.0
 11
259.2469005748388
 21
135.3587117466487
 31
0.0
  0
LINE
  5
29E
330
1F
100
AcDbEntity
  8
0
  6
Continuous
 62
     7
100
AcDbLine
 10
258.5619005748388
 20
134.8452634707867
 30
0.0
 11
258.6919005748388
 21
134.7287117466487
 31
0.0
  0
LINE
  5
29F
330
1F
100
AcDbEntity
  8
0
  6
Continuous
 62
     7
100
AcDbLine
 10
258.5619005748388
 20
134.8452634707867
 30
0.0
 11
258.5469005748388
 21
134.8587117466487
 31
0.0
  0
LINE
  5
2A0
330
1F
100
AcDbEntity
  8
0
  6
Continuous
 62
     7
100
AcDbLine
 10
258.5469005748388
 20
134.8587117466487
 30
0.0
 11
258.5469005748388
 21
134.9587117466488
 31
0.0
  0
LINE
  5
2A1
330
1F
100
AcDbEntity
  8
0
  6
Continuous
 62
     7
100
AcDbLine
 10
258.5619005748388
 20
134.5587117466487
 30
0.0
 11
258.5619005748388
 21
134.8452634707867
 31
0.0
  0
LINE
  5
2A2
330
1F
100
AcDbEntity
  8
0
  6
Continuous
 62
     7
100
AcDbLine
 10
259.2319005748389
 20
134.0587117466487
 30
0.0
 11
259.2319005748389
 21
134.3580842443578
 31
0.0
  0
LINE
  5
2A3
330
1F
100
AcDbEntity
  8
0
  6
Continuous
 62
     7
100
AcDbLine
 10
258.5619005748388
 20
134.0587117466487
 30
0.0
 11
258.5619005748388
 21
134.3580842443578
 31
0.0
  0
LINE
  5
2A4
330
1F
100
AcDbEntity
  8
0
  6
Continuous
 62
     7
100
AcDbLine
 10
259.5819005748388
 20
134.0587117466487
 30
0.0
 11
259.2319005748389
 21
134.0587117466487
 31
0.0
  0
LINE
  5
2A5
330
1F
100
AcDbEntity
  8
0
  6
Continuous
 62
     7
100
AcDbLine
 10
259.1019005748389
 20
134.7287117466487
 30
0.0
 11
259.1019005748389
 21
134.3087117466487
 31
0.0
  0
LINE
  5
2A6
330
1F
100
AcDbEntity
  8
0
  6
Continuous
 62
     7
100
AcDbLine
 10
259.1019005748389
 20
133.7087117466488
 30
0.0
 11
259.1019005748389
 21
134.0087117466488
 31
0.0
  0
LINE
  5
2A7
330
1F
100
AcDbEntity
  8
0
  6
Continuous
 62
     7
100
AcDbLine
 10
259.1019005748389
 20
134.0087117466488
 30
0.0
 11
259.1019005748389
 21
134.3087117466487
 31
0.0
  0
LINE
  5
2A8
330
1F
100
AcDbEntity
  8
0
  6
Continuous
 62
     7
100
AcDbLine
 10
259.7119005748389
 20
134.0087117466488
 30
0.0
 11
259.1019005748389
 21
134.0087117466488
 31
0.0
  0
LINE
  5
2A9
330
1F
100
AcDbEntity
  8
0
  6
Continuous
 62
     7
100
AcDbLine
 10
259.7119005748389
 20
136.4587117466488
 30
0.0
 11
259.1019005748389
 21
136.4587117466488
 31
0.0
  0
LINE
  5
2AA
330
1F
100
AcDbEntity
  8
0
  6
Continuous
 62
     7
100
AcDbLine
 10
256.5069005748388
 20
134.9587117466488
 30
0.0
 11
256.5069005748388
 21
135.3587117466487
 31
0.0
  0
LINE
  5
2AB
330
1F
100
AcDbEntity
  8
0
  6
Continuous
 62
     7
100
AcDbLine
 10
256.5069005748388
 20
135.3587117466487
 30
0.0
 11
256.1869005748388
 21
135.3587117466487
 31
0.0
  0
LINE
  5
2AC
330
1F
100
AcDbEntity
  8
0
  6
Continuous
 62
     7
100
AcDbLine
 10
256.5069005748388
 20
134.9587117466488
 30
0.0
 11
256.1869005748388
 21
134.9587117466488
 31
0.0
  0
LINE
  5
2AD
330
1F
100
AcDbEntity
  8
0
  6
Continuous
 62
     7
100
AcDbLine
 10
256.2519005748388
 20
143.0087117466488
 30
0.0
 11
256.2519005748388
 21
144.8087117466487
 31
0.0
  0
LINE
  5
2AE
330
1F
100
AcDbEntity
  8
0
  6
Continuous
 62
     7
100
AcDbLine
 10
256.5219005748388
 20
134.3580842443578
 30
0.0
 11
256.5219005748388
 21
134.5587117466487
 31
0.0
  0
LINE
  5
2AF
330
1F
100
AcDbEntity
  8
0
  6
Continuous
 62
     7
100
AcDbLine
 10
256.5219005748388
 20
134.5587117466487
 30
0.0
 11
256.5219005748388
 21
134.8452634707867
 31
0.0
  0
LINE
  5
2B0
330
1F
100
AcDbEntity
  8
0
  6
Continuous
 62
     7
100
AcDbLine
 10
256.5219005748388
 20
134.0587117466487
 30
0.0
 11
256.5219005748388
 21
134.3580842443578
 31
0.0
  0
LINE
  5
2B1
330
1F
100
AcDbEntity
  8
0
  6
Continuous
 62
     7
100
AcDbLine
 10
256.5069005748388
 20
134.8587117466487
 30
0.0
 11
256.5069005748388
 21
134.9587117466488
 31
0.0
  0
LINE
  5
2B2
330
1F
100
AcDbEntity
  8
0
  6
Continuous
 62
     7
100
AcDbLine
 10
256.1719005748388
 20
134.0587117466487
 30
0.0
 11
256.1719005748388
 21
134.3580842443578
 31
0.0
  0
LINE
  5
2B3
330
1F
100
AcDbEntity
  8
0
  6
Continuous
 62
     7
100
AcDbLine
 10
256.5219005748388
 20
134.0587117466487
 30
0.0
 11
256.1719005748388
 21
134.0587117466487
 31
0.0
  0
LINE
  5
2B4
330
1F
100
AcDbEntity
  8
0
  6
Continuous
 62
     7
100
AcDbLine
 10
256.5219005748388
 20
134.5587117466487
 30
0.0
 11
256.1719005748388
 21
134.5587117466487
 31
0.0
  0
LINE
  5
2B5
330
1F
100
AcDbEntity
  8
0
  6
Continuous
 62
     7
100
AcDbLine
 10
256.1719005748388
 20
134.3580842443578
 30
0.0
 11
256.1719005748388
 21
134.5587117466487
 31
0.0
  0
LINE
  5
2B6
330
1F
100
AcDbEntity
  8
0
  6
Continuous
 62
     7
100
AcDbLine
 10
256.1719005748388
 20
134.5587117466487
 30
0.0
 11
256.1719005748388
 21
134.8452634707867
 31
0.0
  0
LINE
  5
2B7
330
1F
100
AcDbEntity
  8
0
  6
Continuous
 62
     7
100
AcDbLine
 10
256.1719005748388
 20
134.8452634707867
 30
0.0
 11
256.1869005748388
 21
134.8587117466487
 31
0.0
  0
LINE
  5
2B8
330
1F
100
AcDbEntity
  8
0
  6
Continuous
 62
     7
100
AcDbLine
 10
256.1869005748388
 20
135.3587117466487
 30
0.0
 11
256.1869005748388
 21
134.9587117466488
 31
0.0
  0
LINE
  5
2B9
330
1F
100
AcDbEntity
  8
0
  6
Continuous
 62
     7
100
AcDbLine
 10
256.1869005748388
 20
134.9587117466488
 30
0.0
 11
256.1869005748388
 21
134.8587117466487
 31
0.0
  0
LINE
  5
2BA
330
1F
100
AcDbEntity
  8
0
  6
Continuous
 62
     7
100
AcDbLine
 10
255.5019005748388
 20
134.0587117466487
 30
0.0
 11
255.5019005748388
 21
134.3580842443578
 31
0.0
  0
LINE
  5
2BB
330
1F
100
AcDbEntity
  8
0
  6
Continuous
 62
     7
100
AcDbLine
 10
256.0419005748388
 20
134.7287117466487
 30
0.0
 11
256.1719005748388
 21
134.8452634707867
 31
0.0
  0
LINE
  5
2BC
330
1F
100
AcDbEntity
  8
0
  6
Continuous
 62
     7
100
AcDbLine
 10
255.5019005748388
 20
134.5587117466487
 30
0.0
 11
255.5019005748388
 21
134.8452634707867
 31
0.0
  0
LINE
  5
2BD
330
1F
100
AcDbEntity
  8
0
  6
Continuous
 62
     7
100
AcDbLine
 10
255.4869005748388
 20
134.9587117466488
 30
0.0
 11
255.1669005748388
 21
134.9587117466488
 31
0.0
  0
LINE
  5
2BE
330
1F
100
AcDbEntity
  8
0
  6
Continuous
 62
     7
100
AcDbLine
 10
255.4869005748388
 20
135.3587117466487
 30
0.0
 11
255.1669005748388
 21
135.3587117466487
 31
0.0
  0
LINE
  5
2BF
330
1F
100
AcDbEntity
  8
0
  6
Continuous
 62
     7
100
AcDbLine
 10
255.6319005748388
 20
134.7287117466487
 30
0.0
 11
255.5019005748388
 21
134.8452634707867
 31
0.0
  0
LINE
  5
2C0
330
1F
100
AcDbEntity
  8
0
  6
Continuous
 62
     7
100
AcDbLine
 10
255.5019005748388
 20
134.8452634707867
 30
0.0
 11
255.4869005748388
 21
134.8587117466487
 31
0.0
  0
LINE
  5
2C1
330
1F
100
AcDbEntity
  8
0
  6
Continuous
 62
     7
100
AcDbLine
 10
255.4869005748388
 20
134.8587117466487
 30
0.0
 11
255.4869005748388
 21
134.9587117466488
 31
0.0
  0
LINE
  5
2C2
330
1F
100
AcDbEntity
  8
0
  6
Continuous
 62
     7
100
AcDbLine
 10
255.5019005748388
 20
134.3580842443578
 30
0.0
 11
255.5019005748388
 21
134.5587117466487
 31
0.0
  0
LINE
  5
2C3
330
1F
100
AcDbEntity
  8
0
  6
Continuous
 62
     7
100
AcDbLine
 10
255.4869005748388
 20
134.9587117466488
 30
0.0
 11
255.4869005748388
 21
135.3587117466487
 31
0.0
  0
LINE
  5
2C4
330
1F
100
AcDbEntity
  8
0
  6
Continuous
 62
     7
100
AcDbLine
 10
255.1519005748388
 20
134.0587117466487
 30
0.0
 11
255.1519005748388
 21
134.3580842443578
 31
0.0
  0
LINE
  5
2C5
330
1F
100
AcDbEntity
  8
0
  6
Continuous
 62
     7
100
AcDbLine
 10
255.5019005748388
 20
134.0587117466487
 30
0.0
 11
255.1519005748388
 21
134.0587117466487
 31
0.0
  0
LINE
  5
2C6
330
1F
100
AcDbEntity
  8
0
  6
Continuous
 62
     7
100
AcDbLine
 10
255.5019005748388
 20
134.5587117466487
 30
0.0
 11
255.1519005748388
 21
134.5587117466487
 31
0.0
  0
LINE
  5
2C7
330
1F
100
AcDbEntity
  8
0
  6
Continuous
 62
     7
100
AcDbLine
 10
255.1519005748388
 20
134.3580842443578
 30
0.0
 11
255.1519005748388
 21
134.5587117466487
 31
0.0
  0
LINE
  5
2C8
330
1F
100
AcDbEntity
  8
0
  6
Continuous
 62
     7
100
AcDbLine
 10
255.1519005748388
 20
134.5587117466487
 30
0.0
 11
255.1519005748388
 21
134.8452634707867
 31
0.0
  0
LINE
  5
2C9
330
1F
100
AcDbEntity
  8
0
  6
Continuous
 62
     7
100
AcDbLine
 10
255.1519005748388
 20
134.8452634707867
 30
0.0
 11
255.1669005748388
 21
134.8587117466487
 31
0.0
  0
LINE
  5
2CA
330
1F
100
AcDbEntity
  8
0
  6
Continuous
 62
     7
100
AcDbLine
 10
255.1669005748388
 20
135.3587117466487
 30
0.0
 11
255.1669005748388
 21
134.9587117466488
 31
0.0
  0
LINE
  5
2CB
330
1F
100
AcDbEntity
  8
0
  6
Continuous
 62
     7
100
AcDbLine
 10
255.1669005748388
 20
134.9587117466488
 30
0.0
 11
255.1669005748388
 21
134.8587117466487
 31
0.0
  0
LINE
  5
2CC
330
1F
100
AcDbEntity
  8
0
  6
Continuous
 62
     7
100
AcDbLine
 10
255.0219005748388
 20
134.7287117466487
 30
0.0
 11
255.1519005748388
 21
134.8452634707867
 31
0.0
  0
LINE
  5
2CD
330
1F
100
AcDbEntity
  8
0
  6
Continuous
 62
     7
100
AcDbLine
 10
254.4819005748389
 20
134.8452634707867
 30
0.0
 11
254.4819005748389
 21
134.5587117466487
 31
0.0
  0
LINE
  5
2CE
330
1F
100
AcDbEntity
  8
0
  6
Continuous
 62
     7
100
AcDbLine
 10
254.8119005748388
 20
136.4587117466488
 30
0.0
 11
254.6119005748388
 21
136.4587117466488
 31
0.0
  0
LINE
  5
2CF
330
1F
100
AcDbEntity
  8
0
  6
Continuous
 62
     7
100
AcDbLine
 10
254.6119005748388
 20
134.7287117466487
 30
0.0
 11
254.6119005748388
 21
136.4587117466488
 31
0.0
  0
LINE
  5
2D0
330
1F
100
AcDbEntity
  8
0
  6
Continuous
 62
     7
100
AcDbLine
 10
254.6119005748388
 20
134.3087117466487
 30
0.0
 11
254.6119005748388
 21
134.7287117466487
 31
0.0
  0
LINE
  5
2D1
330
1F
100
AcDbEntity
  8
0
  6
Continuous
 62
     7
100
AcDbLine
 10
254.4819005748389
 20
134.8452634707867
 30
0.0
 11
254.6119005748388
 21
134.7287117466487
 31
0.0
  0
LINE
  5
2D2
330
1F
100
AcDbEntity
  8
0
  6
Continuous
 62
     7
100
AcDbLine
 10
255.0219005748388
 20
136.4587117466488
 30
0.0
 11
255.0219005748388
 21
134.7287117466487
 31
0.0
  0
LINE
  5
2D3
330
1F
100
AcDbEntity
  8
0
  6
Continuous
 62
     7
100
AcDbLine
 10
255.0219005748388
 20
134.7287117466487
 30
0.0
 11
255.0219005748388
 21
134.3087117466487
 31
0.0
  0
LINE
  5
2D4
330
1F
100
AcDbEntity
  8
0
  6
Continuous
 62
     7
100
AcDbLine
 10
255.0219005748388
 20
136.4587117466488
 30
0.0
 11
254.8219005748388
 21
136.4587117466488
 31
0.0
  0
LINE
  5
2D5
330
1F
100
AcDbEntity
  8
0
  6
Continuous
 62
     7
100
AcDbLine
 10
255.6319005748388
 20
136.4587117466488
 30
0.0
 11
255.0219005748388
 21
136.4587117466488
 31
0.0
  0
LINE
  5
2D6
330
1F
100
AcDbEntity
  8
0
  6
Continuous
 62
     7
100
AcDbLine
 10
254.1319005748388
 20
134.0587117466487
 30
0.0
 11
254.1319005748388
 21
134.3580842443578
 31
0.0
  0
LINE
  5
2D7
330
1F
100
AcDbEntity
  8
0
  6
Continuous
 62
     7
100
AcDbLine
 10
254.4819005748389
 20
134.0587117466487
 30
0.0
 11
254.1319005748388
 21
134.0587117466487
 31
0.0
  0
LINE
  5
2D8
330
1F
100
AcDbEntity
  8
0
  6
Continuous
 62
     7
100
AcDbLine
 10
254.4669005748388
 20
134.9587117466488
 30
0.0
 11
254.1469005748388
 21
134.9587117466488
 31
0.0
  0
LINE
  5
2D9
330
1F
100
AcDbEntity
  8
0
  6
Continuous
 62
     7
100
AcDbLine
 10
254.4819005748389
 20
134.5587117466487
 30
0.0
 11
254.1319005748388
 21
134.5587117466487
 31
0.0
  0
LINE
  5
2DA
330
1F
100
AcDbEntity
  8
0
  6
Continuous
 62
     7
100
AcDbLine
 10
254.1319005748388
 20
134.3580842443578
 30
0.0
 11
254.1319005748388
 21
134.5587117466487
 31
0.0
  0
LINE
  5
2DB
330
1F
100
AcDbEntity
  8
0
  6
Continuous
 62
     7
100
AcDbLine
 10
254.4669005748388
 20
134.8587117466487
 30
0.0
 11
254.4819005748389
 21
134.8452634707867
 31
0.0
  0
LINE
  5
2DC
330
1F
100
AcDbEntity
  8
0
  6
Continuous
 62
     7
100
AcDbLine
 10
254.4669005748388
 20
134.8587117466487
 30
0.0
 11
254.4669005748388
 21
134.9587117466488
 31
0.0
  0
LINE
  5
2DD
330
1F
100
AcDbEntity
  8
0
  6
Continuous
 62
     7
100
AcDbLine
 10
254.4669005748388
 20
134.9587117466488
 30
0.0
 11
254.4669005748388
 21
135.3587117466487
 31
0.0
  0
LINE
  5
2DE
330
1F
100
AcDbEntity
  8
0
  6
Continuous
 62
     7
100
AcDbLine
 10
254.4669005748388
 20
135.3587117466487
 30
0.0
 11
254.1469005748388
 21
135.3587117466487
 31
0.0
  0
LINE
  5
2DF
330
1F
100
AcDbEntity
  8
0
  6
Continuous
 62
     7
100
AcDbLine
 10
254.1469005748388
 20
135.3587117466487
 30
0.0
 11
254.1469005748388
 21
134.9587117466488
 31
0.0
  0
LINE
  5
2E0
330
1F
100
AcDbEntity
  8
0
  6
Continuous
 62
     7
100
AcDbLine
 10
254.1469005748388
 20
134.9587117466488
 30
0.0
 11
254.1469005748388
 21
134.8587117466487
 31
0.0
  0
LINE
  5
2E1
330
1F
100
AcDbEntity
  8
0
  6
Continuous
 62
     7
100
AcDbLine
 10
254.1319005748388
 20
134.8452634707867
 30
0.0
 11
254.1469005748388
 21
134.8587117466487
 31
0.0
  0
LINE
  5
2E2
330
1F
100
AcDbEntity
  8
0
  6
Continuous
 62
     7
100
AcDbLine
 10
254.1319005748388
 20
134.5587117466487
 30
0.0
 11
254.1319005748388
 21
134.8452634707867
 31
0.0
  0
LINE
  5
2E3
330
1F
100
AcDbEntity
  8
0
  6
Continuous
 62
     7
100
AcDbLine
 10
255.0219005748388
 20
133.7087117466488
 30
0.0
 11
255.0219005748388
 21
134.0087117466488
 31
0.0
  0
LINE
  5
2E4
330
1F
100
AcDbEntity
  8
0
  6
Continuous
 62
     7
100
AcDbLine
 10
255.0219005748388
 20
134.0087117466488
 30
0.0
 11
255.0219005748388
 21
134.3087117466487
 31
0.0
  0
LINE
  5
2E5
330
1F
100
AcDbEntity
  8
0
  6
Continuous
 62
     7
100
AcDbLine
 10
254.6119005748388
 20
134.3087117466487
 30
0.0
 11
254.6119005748388
 21
134.0087117466488
 31
0.0
  0
LINE
  5
2E6
330
1F
100
AcDbEntity
  8
0
  6
Continuous
 62
     7
100
AcDbLine
 10
254.6119005748388
 20
134.0087117466488
 30
0.0
 11
254.6119005748388
 21
133.7087117466488
 31
0.0
  0
LINE
  5
2E7
330
1F
100
AcDbEntity
  8
0
  6
Continuous
 62
     7
100
AcDbLine
 10
255.6319005748388
 20
134.0087117466488
 30
0.0
 11
255.0219005748388
 21
134.0087117466488
 31
0.0
  0
LINE
  5
2E8
330
1F
100
AcDbEntity
  8
0
  6
Continuous
 62
     7
100
AcDbLine
 10
254.6119005748388
 20
134.0087117466488
 30
0.0
 11
254.04136797714
 21
134.0087117466488
 31
0.0
  0
LINE
  5
2E9
330
1F
100
AcDbEntity
  8
0
  6
Continuous
 62
     7
100
AcDbLine
 10
254.04136797714
 20
134.0087117466488
 30
0.0
 11
254.0019005748388
 21
134.0087117466488
 31
0.0
  0
LINE
  5
2EA
330
1F
100
AcDbEntity
  8
0
  6
Continuous
 62
     7
100
AcDbLine
 10
254.0019005748388
 20
134.0087117466488
 30
0.0
 11
254.0019005748388
 21
134.3087117466487
 31
0.0
  0
LINE
  5
2EB
330
1F
100
AcDbEntity
  8
0
  6
Continuous
 62
     7
100
AcDbLine
 10
253.4769005748389
 20
138.6587117466488
 30
0.0
 11
253.4769005748389
 21
136.6087117466487
 31
0.0
  0
LINE
  5
2EC
330
1F
100
AcDbEntity
  8
0
  6
Continuous
 62
     7
100
AcDbLine
 10
254.6119005748388
 20
136.4587117466488
 30
0.0
 11
254.0019005748388
 21
136.4587117466488
 31
0.0
  0
LINE
  5
2ED
330
1F
100
AcDbEntity
  8
0
  6
Continuous
 62
     7
100
AcDbLine
 10
254.0019005748388
 20
136.4587117466488
 30
0.0
 11
254.0019005748388
 21
134.7287117466487
 31
0.0
  0
LINE
  5
2EE
330
1F
100
AcDbEntity
  8
0
  6
Continuous
 62
     7
100
AcDbLine
 10
254.0019005748388
 20
134.7287117466487
 30
0.0
 11
254.0019005748388
 21
134.3087117466487
 31
0.0
  0
LINE
  5
2EF
330
1F
100
AcDbEntity
  8
0
  6
Continuous
 62
     7
100
AcDbLine
 10
254.0019005748388
 20
134.7287117466487
 30
0.0
 11
254.1319005748388
 21
134.8452634707867
 31
0.0
  0
LINE
  5
2F0
330
1F
100
AcDbEntity
  8
0
  6
Continuous
 62
     7
100
AcDbLine
 10
254.0019005748388
 20
133.7087117466488
 30
0.0
 11
254.0019005748388
 21
134.0087117466488
 31
0.0
  0
LINE
  5
2F1
330
1F
100
AcDbEntity
  8
0
  6
Continuous
 62
     7
100
AcDbLine
 10
254.0019005748388
 20
136.4587117466488
 30
0.0
 11
253.8019005748388
 21
136.4587117466488
 31
0.0
  0
LINE
  5
2F2
330
1F
100
AcDbEntity
  8
0
  6
Continuous
 62
     7
100
AcDbLine
 10
252.5369005748388
 20
138.6587117466488
 30
0.0
 11
253.4769005748389
 21
138.6587117466488
 31
0.0
  0
LINE
  5
2F3
330
1F
100
AcDbEntity
  8
0
  6
Continuous
 62
     7
100
AcDbLine
 10
252.0369005748388
 20
136.3087117466487
 30
0.0
 11
252.0369005748388
 21
134.3087117466487
 31
0.0
  0
LINE
  5
2F4
330
1F
100
AcDbEntity
  8
0
  6
Continuous
 62
     7
100
AcDbLine
 10
252.5369005748388
 20
138.6587117466488
 30
0.0
 11
252.0369005748388
 21
138.6587117466488
 31
0.0
  0
LINE
  5
2F5
330
1F
100
AcDbEntity
  8
0
  6
Continuous
 62
     7
100
AcDbLine
 10
252.0369005748388
 20
138.6587117466488
 30
0.0
 11
252.0369005748388
 21
139.6087117466487
 31
0.0
  0
LINE
  5
2F6
330
1F
100
AcDbEntity
  8
0
  6
Continuous
 62
     7
100
AcDbLine
 10
252.0369005748388
 20
134.0087117466488
 30
0.0
 11
252.0369005748388
 21
134.3087117466487
 31
0.0
  0
LINE
  5
2F7
330
1F
100
AcDbEntity
  8
0
  6
Continuous
 62
     7
100
AcDbLine
 10
259.5019005748388
 20
143.0087117466488
 30
0.0
 11
259.5019005748388
 21
144.8087117466487
 31
0.0
  0
LINE
  5
2F8
330
1F
100
AcDbEntity
  8
0
  6
Continuous
 62
     7
100
AcDbLine
 10
260.5869005748389
 20
135.3587117466487
 30
0.0
 11
260.2669005748388
 21
135.3587117466487
 31
0.0
  0
LINE
  5
2F9
330
1F
100
AcDbEntity
  8
0
  6
Continuous
 62
     7
100
AcDbLine
 10
260.5869005748389
 20
134.9587117466488
 30
0.0
 11
260.2669005748388
 21
134.9587117466488
 31
0.0
  0
LINE
  5
2FA
330
1F
100
AcDbEntity
  8
0
  6
Continuous
 62
     7
100
AcDbLine
 10
259.9119005748388
 20
136.4587117466488
 30
0.0
 11
259.7119005748389
 21
136.4587117466488
 31
0.0
  0
LINE
  5
2FB
330
1F
100
AcDbEntity
  8
0
  6
Continuous
 62
     7
100
AcDbLine
 10
260.1219005748388
 20
136.4587117466488
 30
0.0
 11
259.9219005748388
 21
136.4587117466488
 31
0.0
  0
LINE
  5
2FC
330
1F
100
AcDbEntity
  8
0
  6
Continuous
 62
     7
100
AcDbLine
 10
260.2669005748388
 20
135.3587117466487
 30
0.0
 11
260.2669005748388
 21
134.9587117466488
 31
0.0
  0
LINE
  5
2FD
330
1F
100
AcDbEntity
  8
0
  6
Continuous
 62
     7
100
AcDbLine
 10
260.6019005748389
 20
134.0587117466487
 30
0.0
 11
260.6019005748389
 21
134.3580842443578
 31
0.0
  0
LINE
  5
2FE
330
1F
100
AcDbEntity
  8
0
  6
Continuous
 62
     7
100
AcDbLine
 10
259.5819005748388
 20
134.0587117466487
 30
0.0
 11
259.5819005748388
 21
134.3580842443578
 31
0.0
  0
LINE
  5
2FF
330
1F
100
AcDbEntity
  8
0
  6
Continuous
 62
     7
100
AcDbLine
 10
259.7119005748389
 20
134.3087117466487
 30
0.0
 11
259.7119005748389
 21
134.7287117466487
 31
0.0
  0
LINE
  5
300
330
1F
100
AcDbEntity
  8
0
  6
Continuous
 62
     7
100
AcDbLine
 10
259.5819005748388
 20
134.8452634707867
 30
0.0
 11
259.5669005748388
 21
134.8587117466487
 31
0.0
  0
LINE
  5
301
330
1F
100
AcDbEntity
  8
0
  6
Continuous
 62
     7
100
AcDbLine
 10
259.5819005748388
 20
134.3580842443578
 30
0.0
 11
259.5819005748388
 21
134.5587117466487
 31
0.0
  0
LINE
  5
302
330
1F
100
AcDbEntity
  8
0
  6
Continuous
 62
     7
100
AcDbLine
 10
259.7119005748389
 20
134.7287117466487
 30
0.0
 11
259.5819005748388
 21
134.8452634707867
 31
0.0
  0
LINE
  5
303
330
1F
100
AcDbEntity
  8
0
  6
Continuous
 62
     7
100
AcDbLine
 10
259.7119005748389
 20
134.7287117466487
 30
0.0
 11
259.7119005748389
 21
136.4587117466488
 31
0.0
  0
LINE
  5
304
330
1F
100
AcDbEntity
  8
0
  6
Continuous
 62
     7
100
AcDbLine
 10
260.5869005748389
 20
134.8587117466487
 30
0.0
 11
260.5869005748389
 21
134.9587117466488
 31
0.0
  0
LINE
  5
305
330
1F
100
AcDbEntity
  8
0
  6
Continuous
 62
     7
100
AcDbLine
 10
260.5869005748389
 20
134.9587117466488
 30
0.0
 11
260.5869005748389
 21
135.3587117466487
 31
0.0
  0
LINE
  5
306
330
1F
100
AcDbEntity
  8
0
  6
Continuous
 62
     7
100
AcDbLine
 10
260.6019005748389
 20
134.5587117466487
 30
0.0
 11
260.6019005748389
 21
134.8452634707867
 31
0.0
  0
LINE
  5
307
330
1F
100
AcDbEntity
  8
0
  6
Continuous
 62
     7
100
AcDbLine
 10
260.6019005748389
 20
134.3580842443578
 30
0.0
 11
260.6019005748389
 21
134.5587117466487
 31
0.0
  0
LINE
  5
308
330
1F
100
AcDbEntity
  8
0
  6
Continuous
 62
     7
100
AcDbLine
 10
260.2669005748388
 20
134.9587117466488
 30
0.0
 11
260.2669005748388
 21
134.8587117466487
 31
0.0
  0
LINE
  5
309
330
1F
100
AcDbEntity
  8
0
  6
Continuous
 62
     7
100
AcDbLine
 10
260.2519005748388
 20
134.0587117466487
 30
0.0
 11
260.2519005748388
 21
134.3580842443578
 31
0.0
  0
LINE
  5
30A
330
1F
100
AcDbEntity
  8
0
  6
Continuous
 62
     7
100
AcDbLine
 10
260.1219005748388
 20
136.4587117466488
 30
0.0
 11
260.1219005748388
 21
134.7287117466487
 31
0.0
  0
LINE
  5
30B
330
1F
100
AcDbEntity
  8
0
  6
Continuous
 62
     7
100
AcDbLine
 10
260.1219005748388
 20
134.7287117466487
 30
0.0
 11
260.2519005748388
 21
134.8452634707867
 31
0.0
  0
LINE
  5
30C
330
1F
100
AcDbEntity
  8
0
  6
Continuous
 62
     7
100
AcDbLine
 10
260.2519005748388
 20
134.8452634707867
 30
0.0
 11
260.2669005748388
 21
134.8587117466487
 31
0.0
  0
LINE
  5
30D
330
1F
100
AcDbEntity
  8
0
  6
Continuous
 62
     7
100
AcDbLine
 10
260.2519005748388
 20
134.5587117466487
 30
0.0
 11
260.2519005748388
 21
134.8452634707867
 31
0.0
  0
LINE
  5
30E
330
1F
100
AcDbEntity
  8
0
  6
Continuous
 62
     7
100
AcDbLine
 10
260.1219005748388
 20
134.7287117466487
 30
0.0
 11
260.1219005748388
 21
134.3087117466487
 31
0.0
  0
LINE
  5
30F
330
1F
100
AcDbEntity
  8
0
  6
Continuous
 62
     7
100
AcDbLine
 10
260.6019005748389
 20
134.5587117466487
 30
0.0
 11
260.2519005748388
 21
134.5587117466487
 31
0.0
  0
LINE
  5
310
330
1F
100
AcDbEntity
  8
0
  6
Continuous
 62
     7
100
AcDbLine
 10
260.2519005748388
 20
134.3580842443578
 30
0.0
 11
260.2519005748388
 21
134.5587117466487
 31
0.0
  0
LINE
  5
311
330
1F
100
AcDbEntity
  8
0
  6
Continuous
 62
     7
100
AcDbLine
 10
260.6019005748389
 20
134.0587117466487
 30
0.0
 11
260.2519005748388
 21
134.0587117466487
 31
0.0
  0
LINE
  5
312
330
1F
100
AcDbEntity
  8
0
  6
Continuous
 62
     7
100
AcDbLine
 10
260.6019005748389
 20
134.8452634707867
 30
0.0
 11
260.5869005748389
 21
134.8587117466487
 31
0.0
  0
LINE
  5
313
330
1F
100
AcDbEntity
  8
0
  6
Continuous
 62
     7
100
AcDbLine
 10
260.7319005748389
 20
134.7287117466487
 30
0.0
 11
260.6019005748389
 21
134.8452634707867
 31
0.0
  0
LINE
  5
314
330
1F
100
AcDbEntity
  8
0
  6
Continuous
 62
     7
100
AcDbLine
 10
260.7319005748389
 20
134.0087117466488
 30
0.0
 11
260.1219005748388
 21
134.0087117466488
 31
0.0
  0
LINE
  5
315
330
1F
100
AcDbEntity
  8
0
  6
Continuous
 62
     7
100
AcDbLine
 10
260.7319005748389
 20
134.7287117466487
 30
0.0
 11
260.7319005748389
 21
136.4587117466488
 31
0.0
  0
LINE
  5
316
330
1F
100
AcDbEntity
  8
0
  6
Continuous
 62
     7
100
AcDbLine
 10
260.7319005748389
 20
134.3087117466487
 30
0.0
 11
260.7319005748389
 21
134.7287117466487
 31
0.0
  0
LINE
  5
317
330
1F
100
AcDbEntity
  8
0
  6
Continuous
 62
     7
100
AcDbLine
 10
260.7319005748389
 20
134.3087117466487
 30
0.0
 11
260.7319005748389
 21
134.0087117466488
 31
0.0
  0
LINE
  5
318
330
1F
100
AcDbEntity
  8
0
  6
Continuous
 62
     7
100
AcDbLine
 10
260.7319005748389
 20
134.0087117466488
 30
0.0
 11
260.7319005748389
 21
133.7087117466488
 31
0.0
  0
LINE
  5
319
330
1F
100
AcDbEntity
  8
0
  6
Continuous
 62
     7
100
AcDbLine
 10
260.6769005748388
 20
133.5087117466488
 30
0.0
 11
260.9319005748388
 21
133.5087117466488
 31
0.0
  0
LINE
  5
31A
330
1F
100
AcDbEntity
  8
0
  6
Continuous
 62
     7
100
AcDbLine
 10
259.9219005748388
 20
133.5087117466488
 30
0.0
 11
260.6769005748388
 21
133.5087117466488
 31
0.0
  0
LINE
  5
31B
330
1F
100
AcDbEntity
  8
0
  6
Continuous
 62
     7
100
AcDbLine
 10
260.9363122829945
 20
133.5087117466488
 30
0.0
 11
260.9419005748388
 21
133.5087117466488
 31
0.0
  0
LINE
  5
31C
330
1F
100
AcDbEntity
  8
0
  6
Continuous
 62
     7
100
AcDbLine
 10
260.9319005748388
 20
133.5087117466488
 30
0.0
 11
260.9363122829945
 21
133.5087117466488
 31
0.0
  0
LINE
  5
31D
330
1F
100
AcDbEntity
  8
0
  6
Continuous
 62
     7
100
AcDbLine
 10
260.7319005748389
 20
136.4587117466488
 30
0.0
 11
260.1219005748388
 21
136.4587117466488
 31
0.0
  0
LINE
  5
31E
330
1F
100
AcDbEntity
  8
0
  6
Continuous
 62
     7
100
AcDbLine
 10
260.1219005748388
 20
133.7087117466488
 30
0.0
 11
260.1219005748388
 21
134.0087117466488
 31
0.0
  0
LINE
  5
31F
330
1F
100
AcDbEntity
  8
0
  6
Continuous
 62
     7
100
AcDbLine
 10
260.1219005748388
 20
134.0087117466488
 30
0.0
 11
260.1219005748388
 21
134.3087117466487
 31
0.0
  0
LINE
  5
320
330
1F
100
AcDbEntity
  8
0
  6
Continuous
 62
     7
100
AcDbLine
 10
259.7119005748389
 20
134.3087117466487
 30
0.0
 11
259.7119005748389
 21
134.0087117466488
 31
0.0
  0
LINE
  5
321
330
1F
100
AcDbEntity
  8
0
  6
Continuous
 62
     7
100
AcDbLine
 10
259.7119005748389
 20
134.0087117466488
 30
0.0
 11
259.7119005748389
 21
133.7087117466488
 31
0.0
  0
LINE
  5
322
330
1F
100
AcDbEntity
  8
0
  6
Continuous
 62
     7
100
AcDbLine
 10
260.9419005748388
 20
133.5087117466488
 30
0.0
 11
261.7124331725377
 21
133.5087117466488
 31
0.0
  0
LINE
  5
323
330
1F
100
AcDbEntity
  8
0
  6
Continuous
 62
     7
100
AcDbLine
 10
262.6423181542056
 20
133.5087117466488
 30
0.0
 11
263.2169005748388
 21
133.5087117466488
 31
0.0
  0
LINE
  5
324
330
1F
100
AcDbEntity
  8
0
  6
Continuous
 62
     7
100
AcDbLine
 10
262.3873663020264
 20
133.5087117466488
 30
0.0
 11
262.6423181542056
 21
133.5087117466488
 31
0.0
  0
LINE
  5
325
330
1F
100
AcDbEntity
  8
0
  6
Continuous
 62
     7
100
AcDbLine
 10
261.7124331725377
 20
133.5087117466488
 30
0.0
 11
261.8769005748388
 21
133.5087117466488
 31
0.0
  0
LINE
  5
326
330
1F
100
AcDbEntity
  8
0
  6
Continuous
 62
     7
100
AcDbLine
 10
263.2169005748388
 20
140.1087117466487
 30
0.0
 11
262.3873663020264
 21
140.1087117466487
 31
0.0
  0
LINE
  5
327
330
1F
100
AcDbEntity
  8
0
  6
Continuous
 62
     7
100
AcDbLine
 10
263.7169005748388
 20
136.3087117466487
 30
0.0
 11
263.7169005748388
 21
138.3087117466486
 31
0.0
  0
LINE
  5
328
330
1F
100
AcDbEntity
  8
0
  6
Continuous
 62
     7
100
AcDbLine
 10
263.7169005748388
 20
134.3087117466487
 30
0.0
 11
263.7169005748388
 21
136.3087117466487
 31
0.0
  0
LINE
  5
329
330
1F
100
AcDbEntity
  8
0
  6
Continuous
 62
     7
100
AcDbLine
 10
262.3873663020264
 20
140.1087117466487
 30
0.0
 11
261.8769005748388
 21
140.1087117466487
 31
0.0
  0
LINE
  5
32A
330
1F
100
AcDbEntity
  8
0
  6
Continuous
 62
     7
100
AcDbLine
 10
262.1269005748388
 20
133.5087117466488
 30
0.0
 11
262.3445543087132
 21
133.5087117466488
 31
0.0
  0
LINE
  5
32B
330
1F
100
AcDbEntity
  8
0
  6
Continuous
 62
     7
100
AcDbLine
 10
262.3445543087132
 20
133.5087117466488
 30
0.0
 11
262.3873663020264
 21
133.5087117466488
 31
0.0
  0
LINE
  5
32C
330
1F
100
AcDbEntity
  8
0
  6
Continuous
 62
     7
100
AcDbLine
 10
262.01019701803
 20
133.5087117466488
 30
0.0
 11
262.1269005748388
 21
133.5087117466488
 31
0.0
  0
LINE
  5
32D
330
1F
100
AcDbEntity
  8
0
  6
Continuous
 62
     7
100
AcDbLine
 10
261.9519005748388
 20
133.5087117466488
 30
0.0
 11
262.01019701803
 21
133.5087117466488
 31
0.0
  0
LINE
  5
32E
330
1F
100
AcDbEntity
  8
0
  6
Continuous
 62
     7
100
AcDbLine
 10
261.8769005748388
 20
133.5087117466488
 30
0.0
 11
261.9519005748388
 21
133.5087117466488
 31
0.0
  0
LINE
  5
32F
330
1F
100
AcDbEntity
  8
0
  6
Continuous
 62
     7
100
AcDbLine
 10
261.9519005748388
 20
136.4587117466488
 30
0.0
 11
261.7519005748388
 21
136.4587117466488
 31
0.0
  0
LINE
  5
330
330
1F
100
AcDbEntity
  8
0
  6
Continuous
 62
     7
100
AcDbLine
 10
261.7519005748388
 20
134.7287117466487
 30
0.0
 11
261.6219005748388
 21
134.8452634707867
 31
0.0
  0
LINE
  5
331
330
1F
100
AcDbEntity
  8
0
  6
Continuous
 62
     7
100
AcDbLine
 10
263.7169005748388
 20
138.6587117466488
 30
0.0
 11
263.2169005748388
 21
138.6587117466488
 31
0.0
  0
LINE
  5
332
330
1F
100
AcDbEntity
  8
0
  6
Continuous
 62
     7
100
AcDbLine
 10
262.2769005748388
 20
138.6587117466488
 30
0.0
 11
263.2169005748388
 21
138.6587117466488
 31
0.0
  0
LINE
  5
333
330
1F
100
AcDbEntity
  8
0
  6
Continuous
 62
     7
100
AcDbLine
 10
261.6219005748388
 20
134.0587117466487
 30
0.0
 11
261.6219005748388
 21
134.3580842443578
 31
0.0
  0
LINE
  5
334
330
1F
100
AcDbEntity
  8
0
  6
Continuous
 62
     7
100
AcDbLine
 10
263.7169005748388
 20
139.6087117466487
 30
0.0
 11
263.7169005748388
 21
138.6587117466488
 31
0.0
  0
LINE
  5
335
330
1F
100
AcDbEntity
  8
0
  6
Continuous
 62
     7
100
AcDbLine
 10
263.7169005748388
 20
138.3087117466486
 30
0.0
 11
263.7169005748388
 21
138.6587117466488
 31
0.0
  0
LINE
  5
336
330
1F
100
AcDbEntity
  8
0
  6
Continuous
 62
     7
100
AcDbLine
 10
261.7519005748388
 20
134.7287117466487
 30
0.0
 11
261.7519005748388
 21
136.4587117466488
 31
0.0
  0
LINE
  5
337
330
1F
100
AcDbEntity
  8
0
  6
Continuous
 62
     7
100
AcDbLine
 10
261.7519005748388
 20
134.3087117466487
 30
0.0
 11
261.7519005748388
 21
134.7287117466487
 31
0.0
  0
LINE
  5
338
330
1F
100
AcDbEntity
  8
0
  6
Continuous
 62
     7
100
AcDbLine
 10
262.2769005748388
 20
136.6087117466487
 30
0.0
 11
262.2769005748388
 21
138.6587117466488
 31
0.0
  0
LINE
  5
339
330
1F
100
AcDbEntity
  8
0
  6
Continuous
 62
     7
100
AcDbLine
 10
261.6219005748388
 20
134.8452634707867
 30
0.0
 11
261.6219005748388
 21
134.5587117466487
 31
0.0
  0
LINE
  5
33A
330
1F
100
AcDbEntity
  8
0
  6
Continuous
 62
     7
100
AcDbLine
 10
261.6219005748388
 20
134.3580842443578
 30
0.0
 11
261.6219005748388
 21
134.5587117466487
 31
0.0
  0
LINE
  5
33B
330
1F
100
AcDbEntity
  8
0
  6
Continuous
 62
     7
100
AcDbLine
 10
261.6069005748389
 20
135.3587117466487
 30
0.0
 11
261.2869005748388
 21
135.3587117466487
 31
0.0
  0
LINE
  5
33C
330
1F
100
AcDbEntity
  8
0
  6
Continuous
 62
     7
100
AcDbLine
 10
261.2869005748388
 20
135.3587117466487
 30
0.0
 11
261.2869005748388
 21
134.9587117466488
 31
0.0
  0
LINE
  5
33D
330
1F
100
AcDbEntity
  8
0
  6
Continuous
 62
     7
100
AcDbLine
 10
261.2869005748388
 20
134.9587117466488
 30
0.0
 11
261.2869005748388
 21
134.8587117466487
 31
0.0
  0
LINE
  5
33E
330
1F
100
AcDbEntity
  8
0
  6
Continuous
 62
     7
100
AcDbLine
 10
261.2719005748388
 20
134.5587117466487
 30
0.0
 11
261.2719005748388
 21
134.8452634707867
 31
0.0
  0
LINE
  5
33F
330
1F
100
AcDbEntity
  8
0
  6
Continuous
 62
     7
100
AcDbLine
 10
261.6219005748388
 20
134.8452634707867
 30
0.0
 11
261.6069005748389
 21
134.8587117466487
 31
0.0
  0
LINE
  5
340
330
1F
100
AcDbEntity
  8
0
  6
Continuous
 62
     7
100
AcDbLine
 10
261.6069005748389
 20
134.8587117466487
 30
0.0
 11
261.6069005748389
 21
134.9587117466488
 31
0.0
  0
LINE
  5
341
330
1F
100
AcDbEntity
  8
0
  6
Continuous
 62
     7
100
AcDbLine
 10
261.6069005748389
 20
134.9587117466488
 30
0.0
 11
261.6069005748389
 21
135.3587117466487
 31
0.0
  0
LINE
  5
342
330
1F
100
AcDbEntity
  8
0
  6
Continuous
 62
     7
100
AcDbLine
 10
261.6069005748389
 20
134.9587117466488
 30
0.0
 11
261.2869005748388
 21
134.9587117466488
 31
0.0
  0
LINE
  5
343
330
1F
100
AcDbEntity
  8
0
  6
Continuous
 62
     7
100
AcDbLine
 10
261.2719005748388
 20
134.0587117466487
 30
0.0
 11
261.2719005748388
 21
134.3580842443578
 31
0.0
  0
LINE
  5
344
330
1F
100
AcDbEntity
  8
0
  6
Continuous
 62
     7
100
AcDbLine
 10
261.6219005748388
 20
134.0587117466487
 30
0.0
 11
261.2719005748388
 21
134.0587117466487
 31
0.0
  0
LINE
  5
345
330
1F
100
AcDbEntity
  8
0
  6
Continuous
 62
     7
100
AcDbLine
 10
261.6219005748388
 20
134.5587117466487
 30
0.0
 11
261.2719005748388
 21
134.5587117466487
 31
0.0
  0
LINE
  5
346
330
1F
100
AcDbEntity
  8
0
  6
Continuous
 62
     7
100
AcDbLine
 10
261.2719005748388
 20
134.3580842443578
 30
0.0
 11
261.2719005748388
 21
134.5587117466487
 31
0.0
  0
LINE
  5
347
330
1F
100
AcDbEntity
  8
0
  6
Continuous
 62
     7
100
AcDbLine
 10
261.2719005748388
 20
134.8452634707867
 30
0.0
 11
261.2869005748388
 21
134.8587117466487
 31
0.0
  0
LINE
  5
348
330
1F
100
AcDbEntity
  8
0
  6
Continuous
 62
     7
100
AcDbLine
 10
261.1419005748388
 20
134.7287117466487
 30
0.0
 11
261.2719005748388
 21
134.8452634707867
 31
0.0
  0
LINE
  5
349
330
1F
100
AcDbEntity
  8
0
  6
Continuous
 62
     7
100
AcDbLine
 10
261.1419005748388
 20
136.4587117466488
 30
0.0
 11
261.1419005748388
 21
134.7287117466487
 31
0.0
  0
LINE
  5
34A
330
1F
100
AcDbEntity
  8
0
  6
Continuous
 62
     7
100
AcDbLine
 10
261.1419005748388
 20
134.7287117466487
 30
0.0
 11
261.1419005748388
 21
134.3087117466487
 31
0.0
  0
LINE
  5
34B
330
1F
100
AcDbEntity
  8
0
  6
Continuous
 62
     7
100
AcDbLine
 10
261.7519005748388
 20
136.4587117466488
 30
0.0
 11
261.1419005748388
 21
136.4587117466488
 31
0.0
  0
LINE
  5
34C
330
1F
100
AcDbEntity
  8
0
  6
Continuous
 62
     7
100
AcDbLine
 10
261.7519005748388
 20
134.0087117466488
 30
0.0
 11
261.7519005748388
 21
133.7087117466488
 31
0.0
  0
LINE
  5
34D
330
1F
100
AcDbEntity
  8
0
  6
Continuous
 62
     7
100
AcDbLine
 10
261.1419005748388
 20
134.0087117466488
 30
0.0
 11
261.1419005748388
 21
134.3087117466487
 31
0.0
  0
LINE
  5
34E
330
1F
100
AcDbEntity
  8
0
  6
Continuous
 62
     7
100
AcDbLine
 10
261.1419005748388
 20
133.7087117466488
 30
0.0
 11
261.1419005748388
 21
134.0087117466488
 31
0.0
  0
LINE
  5
34F
330
1F
100
AcDbEntity
  8
0
  6
Continuous
 62
     7
100
AcDbLine
 10
261.7124331725377
 20
134.0087117466488
 30
0.0
 11
261.1419005748388
 21
134.0087117466488
 31
0.0
  0
LINE
  5
350
330
1F
100
AcDbEntity
  8
0
  6
Continuous
 62
     7
100
AcDbLine
 10
261.7519005748388
 20
134.0087117466488
 30
0.0
 11
261.7124331725377
 21
134.0087117466488
 31
0.0
  0
LINE
  5
351
330
1F
100
AcDbEntity
  8
0
  6
Continuous
 62
     7
100
AcDbLine
 10
261.7519005748388
 20
134.3087117466487
 30
0.0
 11
261.7519005748388
 21
134.0087117466488
 31
0.0
  0
LINE
  5
352
330
1F
100
AcDbEntity
  8
0
  6
Continuous
 62
     7
100
AcDbLine
 10
260.9269005748388
 20
138.6587117466488
 30
0.0
 11
262.2769005748388
 21
138.6587117466488
 31
0.0
  0
LINE
  5
353
330
1F
100
AcDbEntity
  8
0
  6
Continuous
 62
     7
100
AcDbLine
 10
261.1419005748388
 20
136.4587117466488
 30
0.0
 11
260.9419005748388
 21
136.4587117466488
 31
0.0
  0
LINE
  5
354
330
1F
100
AcDbEntity
  8
0
  6
Continuous
 62
     7
100
AcDbLine
 10
260.9319005748388
 20
136.4587117466488
 30
0.0
 11
260.7319005748389
 21
136.4587117466488
 31
0.0
  0
LINE
  5
355
330
1F
100
AcDbEntity
  8
0
  6
Continuous
 62
     7
100
AcDbLine
 10
263.7169005748388
 20
134.0087117466488
 30
0.0
 11
263.7169005748388
 21
134.3087117466487
 31
0.0
  0
LINE
  5
356
330
1F
100
AcDbEntity
  8
0
  6
Continuous
 62
     7
100
AcDbLine
 10
258.2269005748389
 20
135.3587117466487
 30
0.0
 11
258.2269005748389
 21
134.9587117466488
 31
0.0
  0
LINE
  5
357
330
1F
100
AcDbEntity
  8
0
  6
Continuous
 62
     7
100
AcDbLine
 10
258.5469005748388
 20
135.3587117466487
 30
0.0
 11
258.2269005748389
 21
135.3587117466487
 31
0.0
  0
LINE
  5
358
330
1F
100
AcDbEntity
  8
0
  6
Continuous
 62
     7
100
AcDbLine
 10
258.5469005748388
 20
134.9587117466488
 30
0.0
 11
258.2269005748389
 21
134.9587117466488
 31
0.0
  0
LINE
  5
359
330
1F
100
AcDbEntity
  8
0
  6
Continuous
 62
     7
100
AcDbLine
 10
258.5619005748388
 20
134.5587117466487
 30
0.0
 11
258.2119005748388
 21
134.5587117466487
 31
0.0
  0
LINE
  5
35A
330
1F
100
AcDbEntity
  8
0
  6
Continuous
 62
     7
100
AcDbLine
 10
258.2119005748388
 20
134.3580842443578
 30
0.0
 11
258.2119005748388
 21
134.5587117466487
 31
0.0
  0
LINE
  5
35B
330
1F
100
AcDbEntity
  8
0
  6
Continuous
 62
     7
100
AcDbLine
 10
258.2119005748388
 20
134.5587117466487
 30
0.0
 11
258.2119005748388
 21
134.8452634707867
 31
0.0
  0
LINE
  5
35C
330
1F
100
AcDbEntity
  8
0
  6
Continuous
 62
     7
100
AcDbLine
 10
258.2119005748388
 20
134.8452634707867
 30
0.0
 11
258.2269005748389
 21
134.8587117466487
 31
0.0
  0
LINE
  5
35D
330
1F
100
AcDbEntity
  8
0
  6
Continuous
 62
     7
100
AcDbLine
 10
258.2269005748389
 20
134.9587117466488
 30
0.0
 11
258.2269005748389
 21
134.8587117466487
 31
0.0
  0
LINE
  5
35E
330
1F
100
AcDbEntity
  8
0
  6
Continuous
 62
     7
100
AcDbLine
 10
258.0819005748388
 20
134.7287117466487
 30
0.0
 11
258.2119005748388
 21
134.8452634707867
 31
0.0
  0
LINE
  5
35F
330
1F
100
AcDbEntity
  8
0
  6
Continuous
 62
     7
100
AcDbLine
 10
258.2119005748388
 20
134.0587117466487
 30
0.0
 11
258.2119005748388
 21
134.3580842443578
 31
0.0
  0
LINE
  5
360
330
1F
100
AcDbEntity
  8
0
  6
Continuous
 62
     7
100
AcDbLine
 10
258.5619005748388
 20
134.0587117466487
 30
0.0
 11
258.2119005748388
 21
134.0587117466487
 31
0.0
  0
LINE
  5
361
330
1F
100
AcDbEntity
  8
0
  6
Continuous
 62
     7
100
AcDbLine
 10
258.6919005748388
 20
134.0087117466488
 30
0.0
 11
258.0819005748388
 21
134.0087117466488
 31
0.0
  0
LINE
  5
362
330
1F
100
AcDbEntity
  8
0
  6
Continuous
 62
     7
100
AcDbLine
 10
258.6919005748388
 20
136.4587117466488
 30
0.0
 11
258.0819005748388
 21
136.4587117466488
 31
0.0
  0
LINE
  5
363
330
1F
100
AcDbEntity
  8
0
  6
Continuous
 62
     7
100
AcDbLine
 10
258.6919005748388
 20
134.7287117466487
 30
0.0
 11
258.6919005748388
 21
136.4587117466488
 31
0.0
  0
LINE
  5
364
330
1F
100
AcDbEntity
  8
0
  6
Continuous
 62
     7
100
AcDbLine
 10
258.6919005748388
 20
134.3087117466487
 30
0.0
 11
258.6919005748388
 21
134.0087117466488
 31
0.0
  0
LINE
  5
365
330
1F
100
AcDbEntity
  8
0
  6
Continuous
 62
     7
100
AcDbLine
 10
258.6919005748388
 20
134.0087117466488
 30
0.0
 11
258.6919005748388
 21
133.7087117466488
 31
0.0
  0
LINE
  5
366
330
1F
100
AcDbEntity
  8
0
  6
Continuous
 62
     7
100
AcDbLine
 10
258.6919005748388
 20
134.3087117466487
 30
0.0
 11
258.6919005748388
 21
134.7287117466487
 31
0.0
  0
LINE
  5
367
330
1F
100
AcDbEntity
  8
0
  6
Continuous
 62
     7
100
AcDbLine
 10
258.8919005748388
 20
136.4587117466488
 30
0.0
 11
258.6919005748388
 21
136.4587117466488
 31
0.0
  0
LINE
  5
368
330
1F
100
AcDbEntity
  8
0
  6
Continuous
 62
     7
100
AcDbLine
 10
258.0819005748388
 20
134.0087117466488
 30
0.0
 11
258.0819005748388
 21
134.3087117466487
 31
0.0
  0
LINE
  5
369
330
1F
100
AcDbEntity
  8
0
  6
Continuous
 62
     7
100
AcDbLine
 10
256.8519005748389
 20
133.5087117466488
 30
0.0
 11
256.8619005748388
 21
133.5087117466488
 31
0.0
  0
LINE
  5
36A
330
1F
100
AcDbEntity
  8
0
  6
Continuous
 62
     7
100
AcDbLine
 10
255.8419005748388
 20
133.5087117466488
 30
0.0
 11
256.7107101958698
 21
133.5087117466488
 31
0.0
  0
LINE
  5
36B
330
1F
100
AcDbEntity
  8
0
  6
Continuous
 62
     7
100
AcDbLine
 10
256.7107101958698
 20
133.5087117466488
 30
0.0
 11
256.8519005748389
 21
133.5087117466488
 31
0.0
  0
LINE
  5
36C
330
1F
100
AcDbEntity
  8
0
  6
Continuous
 62
     7
100
AcDbLine
 10
255.8319005748388
 20
133.5087117466488
 30
0.0
 11
255.8419005748388
 21
133.5087117466488
 31
0.0
  0
LINE
  5
36D
330
1F
100
AcDbEntity
  8
0
  6
Continuous
 62
     7
100
AcDbLine
 10
254.8219005748388
 20
133.5087117466488
 30
0.0
 11
255.0769005748388
 21
133.5087117466488
 31
0.0
  0
LINE
  5
36E
330
1F
100
AcDbEntity
  8
0
  6
Continuous
 62
     7
100
AcDbLine
 10
255.0769005748388
 20
133.5087117466488
 30
0.0
 11
255.8319005748388
 21
133.5087117466488
 31
0.0
  0
LINE
  5
36F
330
1F
100
AcDbEntity
  8
0
  6
Continuous
 62
     7
100
AcDbLine
 10
253.7436041316477
 20
133.5087117466488
 30
0.0
 11
253.8019005748388
 21
133.5087117466488
 31
0.0
  0
LINE
  5
370
330
1F
100
AcDbEntity
  8
0
  6
Continuous
 62
     7
100
AcDbLine
 10
253.6269005748388
 20
133.5087117466488
 30
0.0
 11
253.7436041316477
 21
133.5087117466488
 31
0.0
  0
LINE
  5
371
330
1F
100
AcDbEntity
  8
0
  6
Continuous
 62
     7
100
AcDbLine
 10
253.4092468409644
 20
133.5087117466488
 30
0.0
 11
253.6269005748388
 21
133.5087117466488
 31
0.0
  0
LINE
  5
372
330
1F
100
AcDbEntity
  8
0
  6
Continuous
 62
     7
100
AcDbLine
 10
253.111482995472
 20
133.5087117466488
 30
0.0
 11
253.3664348476512
 21
133.5087117466488
 31
0.0
  0
LINE
  5
373
330
1F
100
AcDbEntity
  8
0
  6
Continuous
 62
     7
100
AcDbLine
 10
253.3664348476512
 20
133.5087117466488
 30
0.0
 11
253.4092468409644
 21
133.5087117466488
 31
0.0
  0
LINE
  5
374
330
1F
100
AcDbEntity
  8
0
  6
Continuous
 62
     7
100
AcDbLine
 10
254.8174888666831
 20
140.1087117466486
 30
0.0
 11
254.1447685716775
 21
140.1087117466487
 31
0.0
  0
LINE
  5
375
330
1F
100
AcDbEntity
  8
0
  6
Continuous
 62
     7
100
AcDbLine
 10
254.1447685716775
 20
140.1087117466487
 30
0.0
 11
253.8769005748388
 21
140.1087117466487
 31
0.0
  0
LINE
  5
376
330
1F
100
AcDbEntity
  8
0
  6
Continuous
 62
     7
100
AcDbLine
 10
254.8269005748388
 20
140.1087117466486
 30
0.0
 11
254.8174888666831
 21
140.1087117466486
 31
0.0
  0
LINE
  5
377
330
1F
100
AcDbEntity
  8
0
  6
Continuous
 62
     7
100
AcDbLine
 10
253.8769005748388
 20
140.1087117466487
 30
0.0
 11
253.3664348476512
 21
140.1087117466487
 31
0.0
  0
LINE
  5
378
330
1F
100
AcDbEntity
  8
0
  6
Continuous
 62
     7
100
AcDbLine
 10
254.04136797714
 20
133.5087117466488
 30
0.0
 11
254.8119005748388
 21
133.5087117466488
 31
0.0
  0
LINE
  5
379
330
1F
100
AcDbEntity
  8
0
  6
Continuous
 62
     7
100
AcDbLine
 10
253.8019005748388
 20
133.5087117466488
 30
0.0
 11
253.8769005748388
 21
133.5087117466488
 31
0.0
  0
LINE
  5
37A
330
1F
100
AcDbEntity
  8
0
  6
Continuous
 62
     7
100
AcDbLine
 10
253.8769005748388
 20
133.5087117466488
 30
0.0
 11
254.04136797714
 21
133.5087117466488
 31
0.0
  0
LINE
  5
37B
330
1F
100
AcDbEntity
  8
0
  6
Continuous
 62
     7
100
AcDbLine
 10
254.8174888666831
 20
133.5087117466488
 30
0.0
 11
254.8219005748388
 21
133.5087117466488
 31
0.0
  0
LINE
  5
37C
330
1F
100
AcDbEntity
  8
0
  6
Continuous
 62
     7
100
AcDbLine
 10
254.8119005748388
 20
133.5087117466488
 30
0.0
 11
254.8174888666831
 21
133.5087117466488
 31
0.0
  0
LINE
  5
37D
330
1F
100
AcDbEntity
  8
0
  6
Continuous
 62
     7
100
AcDbLine
 10
252.0369005748388
 20
138.3087117466487
 30
0.0
 11
252.0369005748388
 21
136.3087117466487
 31
0.0
  0
LINE
  5
37E
330
1F
100
AcDbEntity
  8
0
  6
Continuous
 62
     7
100
AcDbLine
 10
252.0369005748388
 20
138.6587117466488
 30
0.0
 11
252.0369005748388
 21
138.3087117466487
 31
0.0
  0
LINE
  5
37F
330
1F
100
AcDbEntity
  8
0
  6
Continuous
 62
     7
100
AcDbLine
 10
257.6999774979157
 20
132.3087117466486
 30
0.0
 11
257.7192082671467
 21
132.3087117466486
 31
0.0
  0
LINE
  5
380
330
1F
100
AcDbEntity
  8
0
  6
Continuous
 62
     7
100
AcDbLine
 10
257.0845928825311
 20
132.3087117466486
 30
0.0
 11
257.6999774979157
 21
132.3087117466486
 31
0.0
  0
LINE
  5
381
330
1F
100
AcDbEntity
  8
0
  6
Continuous
 62
     7
100
AcDbLine
 10
251.7784624138713
 20
132.3087117466487
 30
0.0
 11
256.182028779967
 21
132.3087117466487
 31
0.0
  0
LINE
  5
382
330
1F
100
AcDbEntity
  8
0
  6
Continuous
 62
     7
100
AcDbLine
 10
256.182028779967
 20
132.3087117466487
 30
0.0
 11
257.0845928825311
 21
132.3087117466486
 31
0.0
  0
LINE
  5
383
330
1F
100
AcDbEntity
  8
0
  6
Continuous
 62
     7
100
AcDbLine
 10
253.3664348476512
 20
140.1087117466487
 30
0.0
 11
252.5369005748388
 21
140.1087117466487
 31
0.0
  0
LINE
  5
384
330
1F
100
AcDbEntity
  8
0
  6
Continuous
 62
     7
100
AcDbLine
 10
252.5369005748388
 20
140.1087117466487
 30
0.0
 11
252.0369005748388
 21
140.1087117466486
 31
0.0
  0
LINE
  5
385
330
1F
100
AcDbEntity
  8
0
  6
Continuous
 62
     7
100
AcDbLine
 10
252.0369005748388
 20
140.3087117466486
 30
0.0
 11
252.0369005748388
 21
140.1087117466486
 31
0.0
  0
LINE
  5
386
330
1F
100
AcDbEntity
  8
0
  6
Continuous
 62
     7
100
AcDbLine
 10
252.0369005748388
 20
133.5087117466485
 30
0.0
 11
252.5369005748388
 21
133.5087117466488
 31
0.0
  0
LINE
  5
387
330
1F
100
AcDbEntity
  8
0
  6
Continuous
 62
     7
100
AcDbLine
 10
252.5369005748388
 20
133.5087117466488
 30
0.0
 11
253.111482995472
 21
133.5087117466488
 31
0.0
  0
LINE
  5
388
330
1F
100
AcDbEntity
  8
0
  6
Continuous
 62
     7
100
AcDbLine
 10
252.0369005748388
 20
134.0087117466488
 30
0.0
 11
252.0369005748388
 21
133.5087117466485
 31
0.0
  0
LINE
  5
389
330
1F
100
AcDbEntity
  8
0
  6
Continuous
 62
     7
100
AcDbLine
 10
260.9363122829946
 20
140.1087117466486
 30
0.0
 11
260.9269005748388
 21
140.1087117466486
 31
0.0
  0
LINE
  5
38A
330
1F
100
AcDbEntity
  8
0
  6
Continuous
 62
     7
100
AcDbLine
 10
261.6090325780001
 20
140.1087117466487
 30
0.0
 11
260.9363122829946
 21
140.1087117466486
 31
0.0
  0
LINE
  5
38B
330
1F
100
AcDbEntity
  8
0
  6
Continuous
 62
     7
100
AcDbLine
 10
261.8769005748388
 20
140.1087117466487
 30
0.0
 11
261.6090325780001
 21
140.1087117466487
 31
0.0
  0
LINE
  5
38C
330
1F
100
AcDbEntity
  8
0
  6
Continuous
 62
     7
100
AcDbLine
 10
251.7922421242335
 20
141.3087117466487
 30
0.0
 11
251.7784624138713
 21
141.3087117466486
 31
0.0
  0
LINE
  5
38D
330
1F
100
AcDbEntity
  8
0
  6
Continuous
 62
     7
100
AcDbLine
 10
256.8619005748388
 20
133.5087117466488
 30
0.0
 11
257.8719005748388
 21
133.5087117466488
 31
0.0
  0
LINE
  5
38E
330
1F
100
AcDbEntity
  8
0
  6
Continuous
 62
     7
100
AcDbLine
 10
257.8719005748388
 20
133.5087117466488
 30
0.0
 11
257.8819005748388
 21
133.5087117466488
 31
0.0
  0
LINE
  5
38F
330
1F
100
AcDbEntity
  8
0
  6
Continuous
 62
     7
100
AcDbLine
 10
257.8819005748388
 20
133.5087117466488
 30
0.0
 11
258.8919005748388
 21
133.5087117466488
 31
0.0
  0
LINE
  5
390
330
1F
100
AcDbEntity
  8
0
  6
Continuous
 62
     7
100
AcDbLine
 10
258.8919005748388
 20
133.5087117466488
 30
0.0
 11
258.9019005748388
 21
133.5087117466488
 31
0.0
  0
LINE
  5
391
330
1F
100
AcDbEntity
  8
0
  6
Continuous
 62
     7
100
AcDbLine
 10
259.9119005748388
 20
133.5087117466488
 30
0.0
 11
259.9219005748388
 21
133.5087117466488
 31
0.0
  0
LINE
  5
392
330
1F
100
AcDbEntity
  8
0
  6
Continuous
 62
     7
100
AcDbLine
 10
259.0430909538079
 20
133.5087117466488
 30
0.0
 11
259.9119005748388
 21
133.5087117466488
 31
0.0
  0
LINE
  5
393
330
1F
100
AcDbEntity
  8
0
  6
Continuous
 62
     7
100
AcDbLine
 10
258.9019005748388
 20
133.5087117466488
 30
0.0
 11
259.0430909538079
 21
133.5087117466488
 31
0.0
  0
LINE
  5
394
330
1F
100
AcDbEntity
  8
0
  6
Continuous
 62
     7
100
AcDbLine
 10
251.2769005748388
 20
140.8087117466487
 30
0.0
 11
251.2769005748388
 21
132.8087117466487
 31
0.0
  0
LINE
  5
395
330
1F
100
AcDbEntity
  8
0
  6
Continuous
 62
     7
100
AcDbLine
 10
252.0369005748388
 20
136.3087117466487
 30
0.0
 11
252.0369005748388
 21
134.3087117466487
 31
0.0
  0
LINE
  5
396
330
1F
100
AcDbEntity
  8
0
  6
Continuous
 62
     7
100
AcDbLine
 10
252.0369005748388
 20
138.6587117466488
 30
0.0
 11
252.0369005748388
 21
139.6087117466487
 31
0.0
  0
LINE
  5
397
330
1F
100
AcDbEntity
  8
0
  6
Continuous
 62
     7
100
AcDbLine
 10
252.0369005748388
 20
140.1087117466486
 30
0.0
 11
252.0369005748388
 21
139.6087117466487
 31
0.0
  0
LINE
  5
398
330
1F
100
AcDbEntity
  8
0
  6
Continuous
 62
     7
100
AcDbLine
 10
252.0369005748388
 20
140.3087117466486
 30
0.0
 11
254.8269005748388
 21
140.3087117466486
 31
0.0
  0
LINE
  5
399
330
1F
100
AcDbEntity
  8
0
  6
Continuous
 62
     7
100
AcDbLine
 10
252.0369005748388
 20
133.5087117466485
 30
0.0
 11
252.0369005748388
 21
133.3087117466487
 31
0.0
  0
LINE
  5
39A
330
1F
100
AcDbEntity
  8
0
  6
Continuous
 62
     7
100
AcDbLine
 10
252.0369005748388
 20
134.0087117466488
 30
0.0
 11
252.0369005748388
 21
134.3087117466487
 31
0.0
  0
LINE
  5
39B
330
1F
100
AcDbEntity
  8
0
  6
Continuous
 62
     7
100
AcDbLine
 10
260.6769005748388
 20
133.5087117466488
 30
0.0
 11
260.9319005748388
 21
133.5087117466488
 31
0.0
  0
LINE
  5
39C
330
1F
100
AcDbEntity
  8
0
  6
Continuous
 62
     7
100
AcDbLine
 10
259.9219005748388
 20
133.5087117466488
 30
0.0
 11
260.6769005748388
 21
133.5087117466488
 31
0.0
  0
LINE
  5
39D
330
1F
100
AcDbEntity
  8
0
  6
Continuous
 62
     7
100
AcDbLine
 10
260.9363122829945
 20
133.5087117466488
 30
0.0
 11
260.9419005748388
 21
133.5087117466488
 31
0.0
  0
LINE
  5
39E
330
1F
100
AcDbEntity
  8
0
  6
Continuous
 62
     7
100
AcDbLine
 10
260.9319005748388
 20
133.5087117466488
 30
0.0
 11
260.9363122829945
 21
133.5087117466488
 31
0.0
  0
LINE
  5
39F
330
1F
100
AcDbEntity
  8
0
  6
Continuous
 62
     7
100
AcDbLine
 10
260.9419005748388
 20
133.5087117466488
 30
0.0
 11
261.7124331725377
 21
133.5087117466488
 31
0.0
  0
LINE
  5
3A0
330
1F
100
AcDbEntity
  8
0
  6
Continuous
 62
     7
100
AcDbLine
 10
262.6423181542056
 20
133.5087117466488
 30
0.0
 11
263.2169005748388
 21
133.5087117466488
 31
0.0
  0
LINE
  5
3A1
330
1F
100
AcDbEntity
  8
0
  6
Continuous
 62
     7
100
AcDbLine
 10
262.3873663020264
 20
133.5087117466488
 30
0.0
 11
262.6423181542056
 21
133.5087117466488
 31
0.0
  0
LINE
  5
3A2
330
1F
100
AcDbEntity
  8
0
  6
Continuous
 62
     7
100
AcDbLine
 10
263.2169005748388
 20
133.5087117466488
 30
0.0
 11
263.7169005748388
 21
133.5087117466485
 31
0.0
  0
LINE
  5
3A3
330
1F
100
AcDbEntity
  8
0
  6
Continuous
 62
     7
100
AcDbLine
 10
261.7124331725377
 20
133.5087117466488
 30
0.0
 11
261.8769005748388
 21
133.5087117466488
 31
0.0
  0
LINE
  5
3A4
330
1F
100
AcDbEntity
  8
0
  6
Continuous
 62
     7
100
AcDbLine
 10
258.7384390363772
 20
132.3087117466487
 30
0.0
 11
259.004544805608
 21
132.3087117466487
 31
0.0
  0
LINE
  5
3A5
330
1F
100
AcDbEntity
  8
0
  6
Continuous
 62
     7
100
AcDbLine
 10
259.004544805608
 20
132.3087117466487
 30
0.0
 11
259.6948492927875
 21
132.3087117466487
 31
0.0
  0
LINE
  5
3A6
330
1F
100
AcDbEntity
  8
0
  6
Continuous
 62
     7
100
AcDbLine
 10
259.6948492927875
 20
132.3087117466487
 30
0.0
 11
263.9753387358062
 21
132.3087117466487
 31
0.0
  0
LINE
  5
3A7
330
1F
100
AcDbEntity
  8
0
  6
Continuous
 62
     7
100
AcDbLine
 10
263.2169005748388
 20
140.1087117466487
 30
0.0
 11
262.3873663020264
 21
140.1087117466487
 31
0.0
  0
LINE
  5
3A8
330
1F
100
AcDbEntity
  8
0
  6
Continuous
 62
     7
100
AcDbLine
 10
263.7169005748388
 20
136.3087117466487
 30
0.0
 11
263.7169005748388
 21
138.3087117466486
 31
0.0
  0
LINE
  5
3A9
330
1F
100
AcDbEntity
  8
0
  6
Continuous
 62
     7
100
AcDbLine
 10
263.7169005748388
 20
139.6087117466487
 30
0.0
 11
263.7169005748388
 21
140.1087117466486
 31
0.0
  0
LINE
  5
3AA
330
1F
100
AcDbEntity
  8
0
  6
Continuous
 62
     7
100
AcDbLine
 10
263.7169005748388
 20
140.1087117466486
 30
0.0
 11
263.2169005748388
 21
140.1087117466487
 31
0.0
  0
LINE
  5
3AB
330
1F
100
AcDbEntity
  8
0
  6
Continuous
 62
     7
100
AcDbLine
 10
263.9753387358062
 20
141.3087117466487
 30
0.0
 11
263.9615590254441
 21
141.3087117466487
 31
0.0
  0
LINE
  5
3AC
330
1F
100
AcDbEntity
  8
0
  6
Continuous
 62
     7
100
AcDbLine
 10
263.7169005748388
 20
134.3087117466487
 30
0.0
 11
263.7169005748388
 21
136.3087117466487
 31
0.0
  0
LINE
  5
3AD
330
1F
100
AcDbEntity
  8
0
  6
Continuous
 62
     7
100
AcDbLine
 10
263.7169005748388
 20
133.3087117466486
 30
0.0
 11
263.7169005748388
 21
133.5087117466485
 31
0.0
  0
LINE
  5
3AE
330
1F
100
AcDbEntity
  8
0
  6
Continuous
 62
     7
100
AcDbLine
 10
262.3873663020264
 20
140.1087117466487
 30
0.0
 11
261.8769005748388
 21
140.1087117466487
 31
0.0
  0
LINE
  5
3AF
330
1F
100
AcDbEntity
  8
0
  6
Continuous
 62
     7
100
AcDbLine
 10
262.1269005748388
 20
133.5087117466488
 30
0.0
 11
262.3445543087132
 21
133.5087117466488
 31
0.0
  0
LINE
  5
3B0
330
1F
100
AcDbEntity
  8
0
  6
Continuous
 62
     7
100
AcDbLine
 10
262.3445543087132
 20
133.5087117466488
 30
0.0
 11
262.3873663020264
 21
133.5087117466488
 31
0.0
  0
LINE
  5
3B1
330
1F
100
AcDbEntity
  8
0
  6
Continuous
 62
     7
100
AcDbLine
 10
262.01019701803
 20
133.5087117466488
 30
0.0
 11
262.1269005748388
 21
133.5087117466488
 31
0.0
  0
LINE
  5
3B2
330
1F
100
AcDbEntity
  8
0
  6
Continuous
 62
     7
100
AcDbLine
 10
261.9519005748388
 20
133.5087117466488
 30
0.0
 11
262.01019701803
 21
133.5087117466488
 31
0.0
  0
LINE
  5
3B3
330
1F
100
AcDbEntity
  8
0
  6
Continuous
 62
     7
100
AcDbLine
 10
261.8769005748388
 20
133.5087117466488
 30
0.0
 11
261.9519005748388
 21
133.5087117466488
 31
0.0
  0
LINE
  5
3B4
330
1F
100
AcDbEntity
  8
0
  6
Continuous
 62
     7
100
AcDbLine
 10
264.4769005748389
 20
132.8087117466487
 30
0.0
 11
264.4769005748389
 21
140.8087117466487
 31
0.0
  0
LINE
  5
3B5
330
1F
100
AcDbEntity
  8
0
  6
Continuous
 62
     7
100
AcDbLine
 10
263.7169005748388
 20
139.6087117466487
 30
0.0
 11
263.7169005748388
 21
138.6587117466488
 31
0.0
  0
LINE
  5
3B6
330
1F
100
AcDbEntity
  8
0
  6
Continuous
 62
     7
100
AcDbLine
 10
263.7169005748388
 20
138.3087117466486
 30
0.0
 11
263.7169005748388
 21
138.6587117466488
 31
0.0
  0
LINE
  5
3B7
330
1F
100
AcDbEntity
  8
0
  6
Continuous
 62
     7
100
AcDbLine
 10
263.7169005748388
 20
140.1087117466486
 30
0.0
 11
263.7169005748388
 21
140.3087117466486
 31
0.0
  0
LINE
  5
3B8
330
1F
100
AcDbEntity
  8
0
  6
Continuous
 62
     7
100
AcDbLine
 10
260.9269005748388
 20
140.3087117466486
 30
0.0
 11
263.7169005748388
 21
140.3087117466486
 31
0.0
  0
LINE
  5
3B9
330
1F
100
AcDbEntity
  8
0
  6
Continuous
 62
     7
100
AcDbLine
 10
263.7169005748388
 20
133.5087117466485
 30
0.0
 11
263.7169005748388
 21
134.0087117466488
 31
0.0
  0
LINE
  5
3BA
330
1F
100
AcDbEntity
  8
0
  6
Continuous
 62
     7
100
AcDbLine
 10
263.7169005748388
 20
134.0087117466488
 30
0.0
 11
263.7169005748388
 21
134.3087117466487
 31
0.0
  0
LINE
  5
3BB
330
1F
100
AcDbEntity
  8
0
  6
Continuous
 62
     7
100
AcDbLine
 10
263.7169005748388
 20
133.3087117466486
 30
0.0
 11
252.0369005748388
 21
133.3087117466487
 31
0.0
  0
LINE
  5
3BC
330
1F
100
AcDbEntity
  8
0
  6
Continuous
 62
     7
100
AcDbLine
 10
258.2769005748388
 20
132.3087117466487
 30
0.0
 11
258.3358749338132
 21
132.3087117466487
 31
0.0
  0
LINE
  5
3BD
330
1F
100
AcDbEntity
  8
0
  6
Continuous
 62
     7
100
AcDbLine
 10
258.3358749338132
 20
132.3087117466487
 30
0.0
 11
258.5269005748388
 21
132.3087117466487
 31
0.0
  0
LINE
  5
3BE
330
1F
100
AcDbEntity
  8
0
  6
Continuous
 62
     7
100
AcDbLine
 10
257.7192082671467
 20
132.3087117466486
 30
0.0
 11
258.2769005748388
 21
132.3087117466487
 31
0.0
  0
ARC
  5
3BF
330
1F
100
AcDbEntity
  8
0
  6
Continuous
 62
     7
100
AcDbCircle
 10
88.32690057483887
 20
141.1587117466486
 30
0.0
 40
0.1999999999999886
100
AcDbArc
 50
90.0
 51
180.0
  0
ARC
  5
3C0
330
1F
100
AcDbEntity
  8
0
  6
Continuous
 62
     7
100
AcDbCircle
 10
87.51804608663576
 20
141.1587117466486
 30
0.0
 40
0.1999999999999886
100
AcDbArc
 50
90.0
 51
114.6199773286613
  0
ARC
  5
3C1
330
1F
100
AcDbEntity
  8
0
  6
Continuous
 62
     7
100
AcDbCircle
 10
86.6015309476445
 20
143.1587117466486
 30
0.0
 40
2.00000000000002
100
AcDbArc
 50
284.993573845791
 51
294.619977328659
  0
ARC
  5
3C2
330
1F
100
AcDbEntity
  8
0
  6
Continuous
 62
     7
100
AcDbCircle
 10
86.6015309476445
 20
143.1587117466486
 30
0.0
 40
2.0
100
AcDbArc
 50
270.0
 51
284.993573845791
  0
ARC
  5
3C3
330
1F
100
AcDbEntity
  8
0
  6
Continuous
 62
     7
100
AcDbCircle
 10
86.52690057483892
 20
140.5587117466486
 30
0.0
 40
0.6000000000000227
100
AcDbArc
 50
0.0
 51
90.0
  0
ARC
  5
3C4
330
1F
100
AcDbEntity
  8
0
  6
Continuous
 62
     7
100
AcDbCircle
 10
89.17690057483901
 20
141.1587117466486
 30
0.0
 40
0.1999999999999318
100
AcDbArc
 50
0.0
 51
90.0
  0
ARC
  5
3C5
330
1F
100
AcDbEntity
  8
0
  6
Continuous
 62
     7
100
AcDbCircle
 10
90.57690057483887
 20
141.1587117466486
 30
0.0
 40
0.1999999999999886
100
AcDbArc
 50
90.0
 51
180.0
  0
ARC
  5
3C6
330
1F
100
AcDbEntity
  8
0
  6
Continuous
 62
     7
100
AcDbCircle
 10
91.42736342895125
 20
141.1582485997369
 30
0.0
 40
0.1995376833935552
100
AcDbArc
 50
0.13298935174083
 51
89.96392047679524
  0
ARC
  5
3C7
330
1F
100
AcDbEntity
  8
0
  6
Continuous
 62
     7
100
AcDbCircle
 10
94.67690057483901
 20
135.7087117466486
 30
0.0
 40
0.1999999999999318
100
AcDbArc
 50
0.0
 51
90.0
  0
ARC
  5
3C8
330
1F
100
AcDbEntity
  8
0
  6
Continuous
 62
     7
100
AcDbCircle
 10
94.07690057483887
 20
135.7087117466486
 30
0.0
 40
0.2000000000000171
100
AcDbArc
 50
90.0
 51
180.0
  0
ARC
  5
3C9
330
1F
100
AcDbEntity
  8
0
  6
Continuous
 62
     7
100
AcDbCircle
 10
94.67690057483901
 20
137.9087117466486
 30
0.0
 40
0.2000000000000171
100
AcDbArc
 50
270.0
 51
0.0
  0
ARC
  5
3CA
330
1F
100
AcDbEntity
  8
0
  6
Continuous
 62
     7
100
AcDbCircle
 10
89.57690057483887
 20
135.7087117466486
 30
0.0
 40
0.2000000000000171
100
AcDbArc
 50
90.0
 51
180.0
  0
ARC
  5
3CB
330
1F
100
AcDbEntity
  8
0
  6
Continuous
 62
     7
100
AcDbCircle
 10
90.17690057483901
 20
135.7087117466486
 30
0.0
 40
0.1999999999999318
100
AcDbArc
 50
0.0
 51
90.0
  0
ARC
  5
3CC
330
1F
100
AcDbEntity
  8
0
  6
Continuous
 62
     7
100
AcDbCircle
 10
89.57690057483887
 20
137.9087117466486
 30
0.0
 40
0.1999999999999318
100
AcDbArc
 50
180.0
 51
270.0
  0
ARC
  5
3CD
330
1F
100
AcDbEntity
  8
0
  6
Continuous
 62
     7
100
AcDbCircle
 10
92.82690057483887
 20
141.1587117466486
 30
0.0
 40
0.1999999999999886
100
AcDbArc
 50
90.0
 51
180.0
  0
ARC
  5
3CE
330
1F
100
AcDbEntity
  8
0
  6
Continuous
 62
     7
100
AcDbCircle
 10
93.67690057483901
 20
141.1587117466486
 30
0.0
 40
0.1999999999999318
100
AcDbArc
 50
0.0
 51
90.0
  0
ARC
  5
3CF
330
1F
100
AcDbEntity
  8
0
  6
Continuous
 62
     7
100
AcDbCircle
 10
95.92746652762617
 20
141.1581457275859
 30
0.0
 40
0.1994348504280211
100
AcDbArc
 50
0.16261223595363
 51
89.99352121588596
  0
ARC
  5
3D0
330
1F
100
AcDbEntity
  8
0
  6
Continuous
 62
     7
100
AcDbCircle
 10
97.32690057483887
 20
141.1587117466486
 30
0.0
 40
0.1999999999999886
100
AcDbArc
 50
90.0
 51
180.0
  0
ARC
  5
3D1
330
1F
100
AcDbEntity
  8
0
  6
Continuous
 62
     7
100
AcDbCircle
 10
95.07690057483887
 20
141.1587117466486
 30
0.0
 40
0.1999999999999886
100
AcDbArc
 50
90.0
 51
180.0
  0
ARC
  5
3D2
330
1F
100
AcDbEntity
  8
0
  6
Continuous
 62
     7
100
AcDbCircle
 10
94.07690057483887
 20
137.9087117466486
 30
0.0
 40
0.1999999999999318
100
AcDbArc
 50
180.0
 51
270.0
  0
ARC
  5
3D3
330
1F
100
AcDbEntity
  8
0
  6
Continuous
 62
     7
100
AcDbCircle
 10
90.17690057483901
 20
137.9087117466486
 30
0.0
 40
0.2000000000000171
100
AcDbArc
 50
270.0
 51
0.0
  0
ARC
  5
3D4
330
1F
100
AcDbEntity
  8
0
  6
Continuous
 62
     7
100
AcDbCircle
 10
87.51804608663576
 20
132.4587117466486
 30
0.0
 40
0.2000000000000124
100
AcDbArc
 50
245.3800226713387
 51
270.0
  0
ARC
  5
3D5
330
1F
100
AcDbEntity
  8
0
  6
Continuous
 62
     7
100
AcDbCircle
 10
86.6015309476445
 20
130.4587117466486
 30
0.0
 40
2.000000000000025
100
AcDbArc
 50
65.38002267134098
 51
75.00642615420894
  0
ARC
  5
3D6
330
1F
100
AcDbEntity
  8
0
  6
Continuous
 62
     7
100
AcDbCircle
 10
91.42690057483901
 20
132.4587117466486
 30
0.0
 40
0.1999999999999886
100
AcDbArc
 50
270.0
 51
0.0
  0
ARC
  5
3D7
330
1F
100
AcDbEntity
  8
0
  6
Continuous
 62
     7
100
AcDbCircle
 10
92.82690057483887
 20
132.4587117466486
 30
0.0
 40
0.1999999999999318
100
AcDbArc
 50
180.0
 51
270.0
  0
ARC
  5
3D8
330
1F
100
AcDbEntity
  8
0
  6
Continuous
 62
     7
100
AcDbCircle
 10
95.92690057483901
 20
132.4587117466486
 30
0.0
 40
0.1999999999999886
100
AcDbArc
 50
270.0
 51
0.0
  0
ARC
  5
3D9
330
1F
100
AcDbEntity
  8
0
  6
Continuous
 62
     7
100
AcDbCircle
 10
89.17690057483901
 20
132.4587117466486
 30
0.0
 40
0.1999999999999886
100
AcDbArc
 50
270.0
 51
0.0
  0
ARC
  5
3DA
330
1F
100
AcDbEntity
  8
0
  6
Continuous
 62
     7
100
AcDbCircle
 10
88.32665430735688
 20
132.458957168592
 30
0.0
 40
0.1997538832833458
100
AcDbArc
 50
180.0703948522269
 51
270.1971016677981
  0
ARC
  5
3DB
330
1F
100
AcDbEntity
  8
0
  6
Continuous
 62
     7
100
AcDbCircle
 10
93.67690057483901
 20
132.4587117466486
 30
0.0
 40
0.1999999999999886
100
AcDbArc
 50
270.0
 51
0.0
  0
ARC
  5
3DC
330
1F
100
AcDbEntity
  8
0
  6
Continuous
 62
     7
100
AcDbCircle
 10
95.07633463150341
 20
132.4592744256444
 30
0.0
 40
0.1994348504281543
100
AcDbArc
 50
180.1616526619217
 51
270.331663875613
  0
ARC
  5
3DD
330
1F
100
AcDbEntity
  8
0
  6
Continuous
 62
     7
100
AcDbCircle
 10
98.42690057483901
 20
132.4587117466486
 30
0.0
 40
0.1999999999999886
100
AcDbArc
 50
269.9999999999674
 51
0.0
  0
ARC
  5
3DE
330
1F
100
AcDbEntity
  8
0
  6
Continuous
 62
     7
100
AcDbCircle
 10
97.32689295197997
 20
132.4587193664276
 30
0.0
 40
0.1999923772863013
100
AcDbArc
 50
180.0021829890931
 51
270.023154275612
  0
ARC
  5
3DF
330
1F
100
AcDbEntity
  8
0
  6
Continuous
 62
     7
100
AcDbCircle
 10
90.576437727045
 20
132.459172163347
 30
0.0
 40
0.199537683393492
100
AcDbArc
 50
180.1322053889601
 51
270.3018894176482
  0
ARC
  5
3E0
330
1F
100
AcDbEntity
  8
0
  6
Continuous
 62
     7
100
AcDbCircle
 10
86.52690057483892
 20
133.0587117466486
 30
0.0
 40
0.6000000000000227
100
AcDbArc
 50
270.0
 51
0.0
  0
ARC
  5
3E1
330
1F
100
AcDbEntity
  8
0
  6
Continuous
 62
     7
100
AcDbCircle
 10
86.6015309476445
 20
130.4587117466486
 30
0.0
 40
2.00000000000002
100
AcDbArc
 50
75.00642615420894
 51
90.0
  0
ARC
  5
3E2
330
1F
100
AcDbEntity
  8
0
  6
Continuous
 62
     7
100
AcDbCircle
 10
98.42690057483901
 20
141.1587117466486
 30
0.0
 40
0.1999999999999318
100
AcDbArc
 50
0.0
 51
90.00000000003257
  0
ARC
  5
3E3
330
1F
100
AcDbEntity
  8
0
  6
Continuous
 62
     7
100
AcDbCircle
 10
60.37690057483894
 20
140.4087117466488
 30
0.0
 40
1.0
100
AcDbArc
 50
126.8698976458456
 51
180.0
  0
ARC
  5
3E4
330
1F
100
AcDbEntity
  8
0
  6
Continuous
 62
     7
100
AcDbCircle
 10
63.97690057483897
 20
140.5231598702229
 30
0.0
 40
0.3000000000000941
100
AcDbArc
 50
103.723913420758
 51
180.0
  0
ARC
  5
3E5
330
1F
100
AcDbEntity
  8
0
  6
Continuous
 62
     7
100
AcDbCircle
 10
60.37690057483894
 20
140.4087117466488
 30
0.0
 40
1.0
100
AcDbArc
 50
90.0
 51
126.8698976458456
  0
ARC
  5
3E6
330
1F
100
AcDbEntity
  8
0
  6
Continuous
 62
     7
100
AcDbCircle
 10
61.47690057483897
 20
134.3087117466488
 30
0.0
 40
0.7999999999999616
100
AcDbArc
 50
180.0
 51
270.0
  0
ARC
  5
3E7
330
1F
100
AcDbEntity
  8
0
  6
Continuous
 62
     7
100
AcDbCircle
 10
214.1769005748388
 20
134.3087117466488
 30
0.0
 40
0.8000000000000114
100
AcDbArc
 50
270.0
 51
0.0
  0
ARC
  5
3E8
330
1F
100
AcDbEntity
  8
0
  6
Continuous
 62
     7
100
AcDbCircle
 10
215.2769005748388
 20
140.4087117466488
 30
0.0
 40
0.9999999999999829
100
AcDbArc
 50
53.13010235415565
 51
90.0
  0
ARC
  5
3E9
330
1F
100
AcDbEntity
  8
0
  6
Continuous
 62
     7
100
AcDbCircle
 10
211.6769005748388
 20
140.5231598702229
 30
0.0
 40
0.3000000000000966
100
AcDbArc
 50
0.0
 51
76.27608657924337
  0
ARC
  5
3EA
330
1F
100
AcDbEntity
  8
0
  6
Continuous
 62
     7
100
AcDbCircle
 10
215.2769005748388
 20
140.4087117466488
 30
0.0
 40
1.0
100
AcDbArc
 50
0.0
 51
53.13010235415565
  0
ARC
  5
3EB
330
1F
100
AcDbEntity
  8
0
  6
Continuous
 62
     7
100
AcDbCircle
 10
177.2269005748389
 20
141.1587117466486
 30
0.0
 40
0.1999999999999886
100
AcDbArc
 50
90.0
 51
180.0
  0
ARC
  5
3EC
330
1F
100
AcDbEntity
  8
0
  6
Continuous
 62
     7
100
AcDbCircle
 10
189.0522702020332
 20
130.4587117466486
 30
0.0
 40
2.0
100
AcDbArc
 50
90.0
 51
104.9935738457887
  0
ARC
  5
3ED
330
1F
100
AcDbEntity
  8
0
  6
Continuous
 62
     7
100
AcDbCircle
 10
189.1269005748388
 20
133.0587117466486
 30
0.0
 40
0.599999999999909
100
AcDbArc
 50
180.0
 51
270.0
  0
ARC
  5
3EE
330
1F
100
AcDbEntity
  8
0
  6
Continuous
 62
     7
100
AcDbCircle
 10
185.0773634226326
 20
132.459172163347
 30
0.0
 40
0.1995376833935927
100
AcDbArc
 50
269.6981105823681
 51
359.86779461104
  0
ARC
  5
3EF
330
1F
100
AcDbEntity
  8
0
  6
Continuous
 62
     7
100
AcDbCircle
 10
178.3269081976978
 20
132.4587193664276
 30
0.0
 40
0.1999923772861459
100
AcDbArc
 50
269.976845724388
 51
359.9978170109069
  0
ARC
  5
3F0
330
1F
100
AcDbEntity
  8
0
  6
Continuous
 62
     7
100
AcDbCircle
 10
177.2269005748389
 20
132.4587117466486
 30
0.0
 40
0.2000000000000171
100
AcDbArc
 50
180.0
 51
270.0
  0
ARC
  5
3F1
330
1F
100
AcDbEntity
  8
0
  6
Continuous
 62
     7
100
AcDbCircle
 10
180.5774665181745
 20
132.4592744256444
 30
0.0
 40
0.1994348504281318
100
AcDbArc
 50
269.6683361243379
 51
359.8383473380782
  0
ARC
  5
3F2
330
1F
100
AcDbEntity
  8
0
  6
Continuous
 62
     7
100
AcDbCircle
 10
181.9769005748389
 20
132.4587117466486
 30
0.0
 40
0.2000000000000171
100
AcDbArc
 50
180.0
 51
270.0
  0
ARC
  5
3F3
330
1F
100
AcDbEntity
  8
0
  6
Continuous
 62
     7
100
AcDbCircle
 10
187.3271468423209
 20
132.458957168592
 30
0.0
 40
0.1997538832833284
100
AcDbArc
 50
269.8028983321774
 51
359.9296051477731
  0
ARC
  5
3F4
330
1F
100
AcDbEntity
  8
0
  6
Continuous
 62
     7
100
AcDbCircle
 10
186.4769005748389
 20
132.4587117466486
 30
0.0
 40
0.2000000000000171
100
AcDbArc
 50
180.0
 51
270.0
  0
ARC
  5
3F5
330
1F
100
AcDbEntity
  8
0
  6
Continuous
 62
     7
100
AcDbCircle
 10
179.7269005748389
 20
132.4587117466486
 30
0.0
 40
0.2000000000000171
100
AcDbArc
 50
180.0
 51
270.0
  0
ARC
  5
3F6
330
1F
100
AcDbEntity
  8
0
  6
Continuous
 62
     7
100
AcDbCircle
 10
182.8269005748389
 20
132.4587117466486
 30
0.0
 40
0.1999999999999886
100
AcDbArc
 50
270.0
 51
0.0
  0
ARC
  5
3F7
330
1F
100
AcDbEntity
  8
0
  6
Continuous
 62
     7
100
AcDbCircle
 10
184.2269005748389
 20
132.4587117466486
 30
0.0
 40
0.2000000000000171
100
AcDbArc
 50
180.0
 51
270.0
  0
ARC
  5
3F8
330
1F
100
AcDbEntity
  8
0
  6
Continuous
 62
     7
100
AcDbCircle
 10
189.0522702020332
 20
130.4587117466486
 30
0.0
 40
1.999999999999998
100
AcDbArc
 50
104.9935738457887
 51
114.6199773286561
  0
ARC
  5
3F9
330
1F
100
AcDbEntity
  8
0
  6
Continuous
 62
     7
100
AcDbCircle
 10
188.1357550630419
 20
132.4587117466486
 30
0.0
 40
0.1999999999999886
100
AcDbArc
 50
270.0
 51
294.6199773287057
  0
ARC
  5
3FA
330
1F
100
AcDbEntity
  8
0
  6
Continuous
 62
     7
100
AcDbCircle
 10
185.4769005748389
 20
137.9087117466486
 30
0.0
 40
0.2000000000000171
100
AcDbArc
 50
180.0
 51
270.0
  0
ARC
  5
3FB
330
1F
100
AcDbEntity
  8
0
  6
Continuous
 62
     7
100
AcDbCircle
 10
181.5769005748389
 20
137.9087117466486
 30
0.0
 40
0.2000000000000171
100
AcDbArc
 50
270.0
 51
0.0
  0
ARC
  5
3FC
330
1F
100
AcDbEntity
  8
0
  6
Continuous
 62
     7
100
AcDbCircle
 10
180.5769005748389
 20
141.1587117466486
 30
0.0
 40
0.1999999999999886
100
AcDbArc
 50
0.0
 51
90.0
  0
ARC
  5
3FD
330
1F
100
AcDbEntity
  8
0
  6
Continuous
 62
     7
100
AcDbCircle
 10
178.3269005748389
 20
141.1587117466486
 30
0.0
 40
0.1999999999999886
100
AcDbArc
 50
0.0
 51
90.0
  0
ARC
  5
3FE
330
1F
100
AcDbEntity
  8
0
  6
Continuous
 62
     7
100
AcDbCircle
 10
179.7263346220516
 20
141.1581457275859
 30
0.0
 40
0.1994348504281148
100
AcDbArc
 50
90.0064787841712
 51
179.8373877640464
  0
ARC
  5
3FF
330
1F
100
AcDbEntity
  8
0
  6
Continuous
 62
     7
100
AcDbCircle
 10
181.9769005748389
 20
141.1587117466486
 30
0.0
 40
0.1999999999999886
100
AcDbArc
 50
90.0
 51
180.0
  0
ARC
  5
400
330
1F
100
AcDbEntity
  8
0
  6
Continuous
 62
     7
100
AcDbCircle
 10
182.8269005748389
 20
141.1587117466486
 30
0.0
 40
0.1999999999999886
100
AcDbArc
 50
0.0
 51
90.0
  0
ARC
  5
401
330
1F
100
AcDbEntity
  8
0
  6
Continuous
 62
     7
100
AcDbCircle
 10
186.0769005748389
 20
137.9087117466486
 30
0.0
 40
0.2000000000000171
100
AcDbArc
 50
270.0
 51
0.0
  0
ARC
  5
402
330
1F
100
AcDbEntity
  8
0
  6
Continuous
 62
     7
100
AcDbCircle
 10
185.4769005748389
 20
135.7087117466486
 30
0.0
 40
0.2000000000000171
100
AcDbArc
 50
90.0
 51
180.0
  0
ARC
  5
403
330
1F
100
AcDbEntity
  8
0
  6
Continuous
 62
     7
100
AcDbCircle
 10
186.0769005748389
 20
135.7087117466486
 30
0.0
 40
0.1999999999999886
100
AcDbArc
 50
0.0
 51
90.0
  0
ARC
  5
404
330
1F
100
AcDbEntity
  8
0
  6
Continuous
 62
     7
100
AcDbCircle
 10
180.9769005748389
 20
137.9087117466486
 30
0.0
 40
0.2000000000000171
100
AcDbArc
 50
180.0
 51
270.0
  0
ARC
  5
405
330
1F
100
AcDbEntity
  8
0
  6
Continuous
 62
     7
100
AcDbCircle
 10
181.5769005748389
 20
135.7087117466486
 30
0.0
 40
0.1999999999999886
100
AcDbArc
 50
0.0
 51
90.0
  0
ARC
  5
406
330
1F
100
AcDbEntity
  8
0
  6
Continuous
 62
     7
100
AcDbCircle
 10
180.9769005748389
 20
135.7087117466486
 30
0.0
 40
0.2000000000000171
100
AcDbArc
 50
90.0
 51
180.0
  0
ARC
  5
407
330
1F
100
AcDbEntity
  8
0
  6
Continuous
 62
     7
100
AcDbCircle
 10
184.2264377207266
 20
141.1582485997369
 30
0.0
 40
0.1995376833935628
100
AcDbArc
 50
90.03607952322926
 51
179.8670106482592
  0
ARC
  5
408
330
1F
100
AcDbEntity
  8
0
  6
Continuous
 62
     7
100
AcDbCircle
 10
185.0769005748389
 20
141.1587117466486
 30
0.0
 40
0.1999999999999886
100
AcDbArc
 50
0.0
 51
90.0
  0
ARC
  5
409
330
1F
100
AcDbEntity
  8
0
  6
Continuous
 62
     7
100
AcDbCircle
 10
186.4769005748389
 20
141.1587117466486
 30
0.0
 40
0.1999999999999886
100
AcDbArc
 50
90.0
 51
180.0
  0
ARC
  5
40A
330
1F
100
AcDbEntity
  8
0
  6
Continuous
 62
     7
100
AcDbCircle
 10
189.1269005748388
 20
140.5587117466486
 30
0.0
 40
0.5999999999999943
100
AcDbArc
 50
90.0
 51
180.0
  0
ARC
  5
40B
330
1F
100
AcDbEntity
  8
0
  6
Continuous
 62
     7
100
AcDbCircle
 10
189.0522702020332
 20
143.1587117466486
 30
0.0
 40
1.999999999999998
100
AcDbArc
 50
255.0064261542113
 51
270.0
  0
ARC
  5
40C
330
1F
100
AcDbEntity
  8
0
  6
Continuous
 62
     7
100
AcDbCircle
 10
189.0522702020332
 20
143.1587117466486
 30
0.0
 40
1.999999999999978
100
AcDbArc
 50
245.3800226713439
 51
255.0064261542113
  0
ARC
  5
40D
330
1F
100
AcDbEntity
  8
0
  6
Continuous
 62
     7
100
AcDbCircle
 10
188.1357550630419
 20
141.1587117466486
 30
0.0
 40
0.2000000000000835
100
AcDbArc
 50
65.38002267129428
 51
90.0
  0
ARC
  5
40E
330
1F
100
AcDbEntity
  8
0
  6
Continuous
 62
     7
100
AcDbCircle
 10
187.3269005748389
 20
141.1587117466486
 30
0.0
 40
0.1999999999999886
100
AcDbArc
 50
0.0
 51
90.0
  0
ARC
  5
40F
330
1F
100
AcDbEntity
  8
1
  6
Continuous
 62
     7
100
AcDbCircle
 10
121.664400574839
 20
138.2874398130836
 30
0.0
 40
1.937500000000023
100
AcDbArc
 50
306.8698976458401
 51
53.13010235415984
  0
ARC
  5
410
330
1F
100
AcDbEntity
  8
1
  6
Continuous
 62
     7
100
AcDbCircle
 10
123.989400574839
 20
138.2874398130836
 30
0.0
 40
1.937500000000134
100
AcDbArc
 50
126.8698976458445
 51
233.1301023541555
  0
ARC
  5
411
330
1F
100
AcDbEntity
  8
1
  6
Continuous
 62
     7
100
AcDbCircle
 10
121.6644005748389
 20
135.1874398130836
 30
0.0
 40
1.937500000000014
100
AcDbArc
 50
306.869897645844
 51
53.13010235415397
  0
ARC
  5
412
330
1F
100
AcDbEntity
  8
1
  6
Continuous
 62
     7
100
AcDbCircle
 10
153.989400574839
 20
135.1874398130836
 30
0.0
 40
1.937499999999983
100
AcDbArc
 50
126.8698976458484
 51
233.1301023541536
  0
ARC
  5
413
330
1F
100
AcDbEntity
  8
1
  6
Continuous
 62
     7
100
AcDbCircle
 10
151.6644005748389
 20
135.1874398130836
 30
0.0
 40
1.937500000000006
100
AcDbArc
 50
306.8698976458437
 51
53.1301023541543
  0
ARC
  5
414
330
1F
100
AcDbEntity
  8
1
  6
Continuous
 62
     7
100
AcDbCircle
 10
153.989400574839
 20
138.2874398130836
 30
0.0
 40
1.937500000000142
100
AcDbArc
 50
126.8698976458449
 51
233.1301023541552
  0
ARC
  5
415
330
1F
100
AcDbEntity
  8
0
  6
Continuous
 62
     7
100
AcDbCircle
 10
76.37690057483894
 20
145.3087117466489
 30
0.0
 40
0.3999999999999773
100
AcDbArc
 50
0.0
 51
114.0709126765388
  0
ARC
  5
416
330
1F
100
AcDbEntity
  8
0
  6
Continuous
 62
     7
100
AcDbCircle
 10
199.2769005748389
 20
145.3087117466489
 30
0.0
 40
0.4000000000000368
100
AcDbArc
 50
65.92908732346118
 51
180.0
  0
ARC
  5
417
330
1F
100
AcDbEntity
  8
0
  6
Continuous
 62
     7
100
AcDbCircle
 10
256.8519005748389
 20
133.7087117466488
 30
0.0
 40
0.2000000000001023
100
AcDbArc
 50
180.0
 51
270.0
  0
ARC
  5
418
330
1F
100
AcDbEntity
  8
0
  6
Continuous
 62
     7
100
AcDbCircle
 10
255.8419005748388
 20
133.7087117466488
 30
0.0
 40
0.1999999999999886
100
AcDbArc
 50
270.0
 51
0.0
  0
ARC
  5
419
330
1F
100
AcDbEntity
  8
0
  6
Continuous
 62
     7
100
AcDbCircle
 10
255.8319005748388
 20
133.7087117466488
 30
0.0
 40
0.2000000000000171
100
AcDbArc
 50
180.0
 51
270.0
  0
ARC
  5
41A
330
1F
100
AcDbEntity
  8
0
  6
Continuous
 62
     7
100
AcDbCircle
 10
257.8719005748388
 20
133.7087117466488
 30
0.0
 40
0.1999999999999886
100
AcDbArc
 50
180.0
 51
270.0
  0
ARC
  5
41B
330
1F
100
AcDbEntity
  8
0
  6
Continuous
 62
     7
100
AcDbCircle
 10
257.8819005748388
 20
133.7087117466488
 30
0.0
 40
0.1999999999999886
100
AcDbArc
 50
270.0
 51
0.0
  0
ARC
  5
41C
330
1F
100
AcDbEntity
  8
0
  6
Continuous
 62
     7
100
AcDbCircle
 10
256.8619005748388
 20
133.7087117466488
 30
0.0
 40
0.1999999999999886
100
AcDbArc
 50
270.0
 51
0.0
  0
ARC
  5
41D
330
1F
100
AcDbEntity
  8
0
  6
Continuous
 62
     7
100
AcDbCircle
 10
258.9019005748388
 20
133.7087117466488
 30
0.0
 40
0.1999999999999886
100
AcDbArc
 50
270.0
 51
0.0
  0
ARC
  5
41E
330
1F
100
AcDbEntity
  8
0
  6
Continuous
 62
     7
100
AcDbCircle
 10
258.8919005748388
 20
133.7087117466488
 30
0.0
 40
0.1999999999999886
100
AcDbArc
 50
180.0
 51
270.0
  0
ARC
  5
41F
330
1F
100
AcDbEntity
  8
0
  6
Continuous
 62
     7
100
AcDbCircle
 10
253.2869005748388
 20
139.0321492466488
 30
0.0
 40
1.376562499999878
100
AcDbArc
 50
128.5498876643984
 51
129.6589496052598
  0
ARC
  5
420
330
1F
100
AcDbEntity
  8
0
  6
Continuous
 62
     7
100
AcDbCircle
 10
254.8219005748388
 20
133.7087117466488
 30
0.0
 40
0.1999999999999886
100
AcDbArc
 50
270.0
 51
0.0
  0
ARC
  5
421
330
1F
100
AcDbEntity
  8
0
  6
Continuous
 62
     7
100
AcDbCircle
 10
254.8119005748388
 20
133.7087117466488
 30
0.0
 40
0.1999999999999886
100
AcDbArc
 50
180.0
 51
270.0
  0
ARC
  5
422
330
1F
100
AcDbEntity
  8
0
  6
Continuous
 62
     7
100
AcDbCircle
 10
253.8019005748388
 20
133.7087117466488
 30
0.0
 40
0.1999999999999886
100
AcDbArc
 50
270.0
 51
0.0
  0
ARC
  5
423
330
1F
100
AcDbEntity
  8
0
  6
Continuous
 62
     7
100
AcDbCircle
 10
252.5369005748388
 20
134.0087117466488
 30
0.0
 40
0.5
100
AcDbArc
 50
180.0
 51
270.0
  0
ARC
  5
424
330
1F
100
AcDbEntity
  8
0
  6
Continuous
 62
     7
100
AcDbCircle
 10
252.5369005748388
 20
139.6087117466487
 30
0.0
 40
0.5
100
AcDbArc
 50
90.0
 51
180.0
  0
ARC
  5
425
330
1F
100
AcDbEntity
  8
0
  6
Continuous
 62
     7
100
AcDbCircle
 10
260.9319005748388
 20
133.7087117466488
 30
0.0
 40
0.1999999999998749
100
AcDbArc
 50
180.0
 51
270.0
  0
ARC
  5
426
330
1F
100
AcDbEntity
  8
0
  6
Continuous
 62
     7
100
AcDbCircle
 10
259.9219005748388
 20
133.7087117466488
 30
0.0
 40
0.1999999999999886
100
AcDbArc
 50
270.0
 51
0.0
  0
ARC
  5
427
330
1F
100
AcDbEntity
  8
0
  6
Continuous
 62
     7
100
AcDbCircle
 10
259.9119005748388
 20
133.7087117466488
 30
0.0
 40
0.1999999999998749
100
AcDbArc
 50
180.0
 51
270.0
  0
ARC
  5
428
330
1F
100
AcDbEntity
  8
0
  6
Continuous
 62
     7
100
AcDbCircle
 10
262.4669005748388
 20
139.0321492466488
 30
0.0
 40
1.376562499999979
100
AcDbArc
 50
50.34105039473746
 51
51.45011233559787
  0
ARC
  5
429
330
1F
100
AcDbEntity
  8
0
  6
Continuous
 62
     7
100
AcDbCircle
 10
260.9419005748388
 20
133.7087117466488
 30
0.0
 40
0.1999999999999886
100
AcDbArc
 50
270.0
 51
0.0
  0
ARC
  5
42A
330
1F
100
AcDbEntity
  8
0
  6
Continuous
 62
     7
100
AcDbCircle
 10
263.2169005748388
 20
134.0087117466488
 30
0.0
 40
0.5
100
AcDbArc
 50
270.0
 51
0.0
  0
ARC
  5
42B
330
1F
100
AcDbEntity
  8
0
  6
Continuous
 62
     7
100
AcDbCircle
 10
263.2169005748388
 20
139.6087117466487
 30
0.0
 40
0.5
100
AcDbArc
 50
0.0
 51
90.0
  0
ARC
  5
42C
330
1F
100
AcDbEntity
  8
0
  6
Continuous
 62
     7
100
AcDbCircle
 10
261.9519005748388
 20
133.7087117466488
 30
0.0
 40
0.1999999999999886
100
AcDbArc
 50
180.0
 51
270.0
  0
ARC
  5
42D
330
1F
100
AcDbEntity
  8
0
  6
Continuous
 62
     7
100
AcDbCircle
 10
251.7776802784884
 20
140.807932046797
 30
0.0
 40
0.5007803106345493
100
AcDbArc
 50
89.91051350519251
 51
179.9107921619715
  0
ARC
  5
42E
330
1F
100
AcDbEntity
  8
0
  6
Continuous
 62
     7
100
AcDbCircle
 10
251.7776802784884
 20
132.8094914465004
 30
0.0
 40
0.500780310634538
100
AcDbArc
 50
180.0892078380285
 51
270.0894864948075
  0
ARC
  5
42F
330
1F
100
AcDbEntity
  8
0
  6
Continuous
 62
     7
100
AcDbCircle
 10
263.9761208711892
 20
140.8079320467971
 30
0.0
 40
0.5007803106346516
100
AcDbArc
 50
0.08920783801548
 51
90.0894864948205
  0
ARC
  5
430
330
1F
100
AcDbEntity
  8
0
  6
Continuous
 62
     7
100
AcDbCircle
 10
263.9761208711893
 20
132.8094914465003
 30
0.0
 40
0.5007803106345212
100
AcDbArc
 50
269.9105135051664
 51
359.9107921619845
  0
SPLINE
  5
431
330
1F
100
AcDbEntity
  8
0
  6
Continuous
 62
     7
100
AcDbSpline
210
0.0
220
0.0
230
1.0
 70
     8
 71
     3
 72
    11
 73
     7
 74
     5
 42
0.000000001
 43
0.0000000001
 44
0.00000001
 40
0.0
 40
0.0
 40
0.0
 40
0.0
 40
1.894950990208129
 40
3.492046667347912
 40
5.534605043326181
 40
6.945944061262784
 40
6.945944061262784
 40
6.945944061262784
 40
6.945944061262784
 10
201.0269005748389
 20
141.16017907759
 30
0.0
 10
200.3952544987999
 20
141.1623196082014
 30
0.0
 10
199.2312467823647
 20
141.1662641986657
 30
0.0
 10
197.3863956122779
 20
141.1766584477743
 30
0.0
 10
195.7027272258464
 20
141.1689307431297
 30
0.0
 10
194.5514530682648
 20
141.1616761437355
 30
0.0
 10
194.0810169338108
 20
141.1587117466486
 30
0.0
 11
201.0269005748389
 21
141.16017907759
 31
0.0
 11
199.1319632297608
 21
141.1673702926033
 31
0.0
 11
197.5348790618202
 21
141.1734334999003
 31
0.0
 11
195.4923299672258
 21
141.1672759402142
 31
0.0
 11
194.0810169338108
 21
141.1587117466486
 31
0.0
  0
SPLINE
  5
432
330
1F
100
AcDbEntity
  8
0
  6
Continuous
 62
     7
100
AcDbSpline
210
0.0
220
0.0
230
1.0
 70
     8
 71
     3
 72
    11
 73
     7
 74
     5
 42
0.000000001
 43
0.0000000001
 44
0.00000001
 40
0.0
 40
0.0
 40
0.0
 40
0.0
 40
0.0400461369627816
 40
0.0749671653974998
 40
0.1216878519382287
 40
0.1510525926061907
 40
0.1510525926061907
 40
0.1510525926061907
 40
0.1510525926061907
 10
178.6571401577044
 20
133.6374398130834
 30
0.0
 10
178.643819839876
 20
133.6390889796569
 30
0.0
 10
178.6188839400215
 20
133.6421762496506
 30
0.0
 10
178.5803414931931
 20
133.6521497921241
 30
0.0
 10
178.5416525633885
 20
133.6642018696745
 30
0.0
 10
178.531008561364
 20
133.6881855423474
 30
0.0
 10
178.5269005748389
 20
133.6974419094278
 30
0.0
 11
178.6571401577044
 21
133.6374398130834
 31
0.0
 11
178.6175191794662
 21
133.6432596403513
 31
0.0
 11
178.5836038897619
 21
133.6515801766127
 31
0.0
 11
178.5415890131095
 21
133.6720147979011
 31
0.0
 11
178.5269005748389
 21
133.6974419094278
 31
0.0
  0
SPLINE
  5
433
330
1F
100
AcDbEntity
  8
0
  6
Continuous
 62
     7
100
AcDbSpline
210
0.0
220
0.0
230
1.0
 70
     8
 71
     3
 72
     9
 73
     5
 74
     3
 42
0.000000001
 43
0.0000000001
 44
0.00000001
 40
0.0
 40
0.0
 40
0.0
 40
0.0
 40
0.0356240853848266
 40
0.0698794482297684
 40
0.0698794482297684
 40
0.0698794482297684
 40
0.0698794482297684
 10
183.2269005748389
 20
133.6338101733711
 30
0.0
 10
183.2150214275904
 20
133.633957347245
 30
0.0
 10
183.1917195457904
 20
133.6342460603653
 30
0.0
 10
183.1685151189519
 20
133.6363892149164
 30
0.0
 10
183.1571401577048
 20
133.6374398130834
 30
0.0
 11
183.2269005748389
 21
133.6338101733711
 31
0.0
 11
183.1912884608867
 21
133.6347336549875
 31
0.0
 11
183.1571401577048
 21
133.6374398130834
 31
0.0
  0
SPLINE
  5
434
330
1F
100
AcDbEntity
  8
0
  6
Continuous
 62
     7
100
AcDbSpline
210
0.0
220
0.0
230
1.0
 70
     8
 71
     3
 72
     9
 73
     5
 74
     3
 42
0.000000001
 43
0.0000000001
 44
0.00000001
 40
0.0
 40
0.0
 40
0.0
 40
0.0
 40
0.0356240853849978
 40
0.069879448230164
 40
0.069879448230164
 40
0.069879448230164
 40
0.069879448230164
 10
178.7269005748389
 20
133.6338101733711
 30
0.0
 10
178.7150214275904
 20
133.6339573472451
 30
0.0
 10
178.6917195457902
 20
133.6342460603654
 30
0.0
 10
178.6685151189515
 20
133.6363892149163
 30
0.0
 10
178.6571401577044
 20
133.6374398130834
 30
0.0
 11
178.7269005748389
 21
133.6338101733711
 31
0.0
 11
178.6912884608865
 21
133.6347336549875
 31
0.0
 11
178.6571401577044
 21
133.6374398130834
 31
0.0
  0
SPLINE
  5
435
330
1F
100
AcDbEntity
  8
0
  6
Continuous
 62
     7
100
AcDbSpline
210
0.0
220
0.0
230
1.0
 70
     8
 71
     3
 72
     9
 73
     5
 74
     3
 42
0.000000001
 43
0.0000000001
 44
0.00000001
 40
0.0
 40
0.0
 40
0.0
 40
0.0
 40
0.0356240853846845
 40
0.0698794482295697
 40
0.0698794482295697
 40
0.0698794482295697
 40
0.0698794482295697
 10
187.7269005748389
 20
133.6338101733711
 30
0.0
 10
187.7150214275904
 20
133.6339573472451
 30
0.0
 10
187.6917195457905
 20
133.6342460603653
 30
0.0
 10
187.6685151189521
 20
133.6363892149164
 30
0.0
 10
187.657140157705
 20
133.6374398130834
 30
0.0
 11
187.7269005748389
 21
133.6338101733711
 31
0.0
 11
187.6912884608869
 21
133.6347336549875
 31
0.0
 11
187.657140157705
 21
133.6374398130834
 31
0.0
  0
SPLINE
  5
436
330
1F
100
AcDbEntity
  8
0
  6
Continuous
 62
     7
100
AcDbSpline
210
0.0
220
0.0
230
1.0
 70
     8
 71
     3
 72
     9
 73
     5
 74
     3
 42
0.000000001
 43
0.0000000001
 44
0.00000001
 40
0.0
 40
0.0
 40
0.0
 40
0.0
 40
0.0343453686802659
 40
0.0699553561890586
 40
0.0699553561890586
 40
0.0699553561890586
 40
0.0699553561890586
 10
183.8967369990821
 20
133.6374398130834
 30
0.0
 10
183.8853320442588
 20
133.6363875568205
 30
0.0
 10
183.8621021954308
 20
133.6342443194849
 30
0.0
 10
183.8387750144405
 20
133.6339566156193
 30
0.0
 10
183.8269005748389
 20
133.6338101733711
 30
0.0
 11
183.8967369990821
 21
133.6374398130834
 31
0.0
 11
183.8624986726073
 21
133.6347303171466
 31
0.0
 11
183.8269005748389
 21
133.6338101733711
 31
0.0
  0
SPLINE
  5
437
330
1F
100
AcDbEntity
  8
0
  6
Continuous
 62
     7
100
AcDbSpline
210
0.0
220
0.0
230
1.0
 70
     8
 71
     3
 72
     9
 73
     5
 74
     3
 42
0.000000001
 43
0.0000000001
 44
0.00000001
 40
0.0
 40
0.0
 40
0.0
 40
0.0
 40
0.0343453686800959
 40
0.0699553561886613
 40
0.0699553561886613
 40
0.0699553561886613
 40
0.0699553561886613
 10
188.3967369990817
 20
133.6374398130834
 30
0.0
 10
188.3853320442585
 20
133.6363875568206
 30
0.0
 10
188.3621021954307
 20
133.6342443194849
 30
0.0
 10
188.3387750144404
 20
133.6339566156193
 30
0.0
 10
188.3269005748389
 20
133.6338101733711
 30
0.0
 11
188.3967369990817
 21
133.6374398130834
 31
0.0
 11
188.362498672607
 21
133.6347303171466
 31
0.0
 11
188.3269005748389
 21
133.6338101733711
 31
0.0
  0
SPLINE
  5
438
330
1F
100
AcDbEntity
  8
0
  6
Continuous
 62
     7
100
AcDbSpline
210
0.0
220
0.0
230
1.0
 70
     8
 71
     3
 72
     9
 73
     5
 74
     3
 42
0.000000001
 43
0.0000000001
 44
0.00000001
 40
0.0
 40
0.0
 40
0.0
 40
0.0
 40
0.0343453686805254
 40
0.0699553561893735
 40
0.0699553561893735
 40
0.0699553561893735
 40
0.0699553561893735
 10
179.3967369990824
 20
133.6374398130834
 30
0.0
 10
179.3853320442591
 20
133.6363875568205
 30
0.0
 10
179.362102195431
 20
133.6342443194848
 30
0.0
 10
179.3387750144405
 20
133.6339566156193
 30
0.0
 10
179.3269005748389
 20
133.6338101733711
 30
0.0
 11
179.3967369990824
 21
133.6374398130834
 31
0.0
 11
179.3624986726073
 21
133.6347303171465
 31
0.0
 11
179.3269005748389
 21
133.6338101733711
 31
0.0
  0
SPLINE
  5
439
330
1F
100
AcDbEntity
  8
0
  6
Continuous
 62
     7
100
AcDbSpline
210
0.0
220
0.0
230
1.0
 70
     8
 71
     3
 72
    11
 73
     7
 74
     5
 42
0.000000001
 43
0.0000000001
 44
0.00000001
 40
0.0
 40
0.0
 40
0.0
 40
0.0
 40
0.0400461369630826
 40
0.0749671653979592
 40
0.1216878519386245
 40
0.1510525926065865
 40
0.1510525926065865
 40
0.1510525926065865
 40
0.1510525926065865
 10
183.1571401577048
 20
133.6374398130834
 30
0.0
 10
183.1438198398763
 20
133.6390889796568
 30
0.0
 10
183.1188839400217
 20
133.6421762496505
 30
0.0
 10
183.080341493193
 20
133.6521497921241
 30
0.0
 10
183.0416525633887
 20
133.6642018696745
 30
0.0
 10
183.0310085613639
 20
133.6881855423474
 30
0.0
 10
183.0269005748389
 20
133.6974419094278
 30
0.0
 11
183.1571401577048
 21
133.6374398130834
 31
0.0
 11
183.1175191794663
 21
133.6432596403512
 31
0.0
 11
183.0836038897618
 21
133.6515801766127
 31
0.0
 11
183.0415890131095
 21
133.6720147979011
 31
0.0
 11
183.0269005748389
 21
133.6974419094278
 31
0.0
  0
SPLINE
  5
43A
330
1F
100
AcDbEntity
  8
0
  6
Continuous
 62
     7
100
AcDbSpline
210
0.0
220
0.0
230
1.0
 70
     8
 71
     3
 72
    11
 73
     7
 74
     5
 42
0.000000001
 43
0.0000000001
 44
0.00000001
 40
0.0
 40
0.0
 40
0.0
 40
0.0
 40
0.040046136963191
 40
0.0749671653981988
 40
0.1216878519388379
 40
0.1510525926067998
 40
0.1510525926067998
 40
0.1510525926067998
 40
0.1510525926067998
 10
187.657140157705
 20
133.6374398130834
 30
0.0
 10
187.6438198398764
 20
133.6390889796569
 30
0.0
 10
187.6188839400217
 20
133.6421762496504
 30
0.0
 10
187.5803414931931
 20
133.652149792124
 30
0.0
 10
187.5416525633886
 20
133.6642018696745
 30
0.0
 10
187.531008561364
 20
133.6881855423474
 30
0.0
 10
187.5269005748389
 20
133.6974419094278
 30
0.0
 11
187.657140157705
 21
133.6374398130834
 31
0.0
 11
187.6175191794663
 21
133.6432596403512
 31
0.0
 11
187.5836038897618
 21
133.6515801766126
 31
0.0
 11
187.5415890131095
 21
133.6720147979011
 31
0.0
 11
187.5269005748389
 21
133.6974419094278
 31
0.0
  0
SPLINE
  5
43B
330
1F
100
AcDbEntity
  8
0
  6
Continuous
 62
     7
100
AcDbSpline
210
0.0
220
0.0
230
1.0
 70
     8
 71
     3
 72
    11
 73
     7
 74
     5
 42
0.000000001
 43
0.0000000001
 44
0.00000001
 40
0.0
 40
0.0
 40
0.0
 40
0.0
 40
0.0292792732840589
 40
0.0759944821979055
 40
0.1110188199997678
 40
0.1510064836644714
 40
0.1510064836644714
 40
0.1510064836644714
 40
0.1510064836644714
 10
179.5269005748389
 20
133.6974419094278
 30
0.0
 10
179.5228293863862
 20
133.6881984755662
 30
0.0
 10
179.5122625835492
 20
133.664207113199
 30
0.0
 10
179.473527259692
 20
133.6521867261308
 30
0.0
 10
179.4349909877515
 20
133.6421753747512
 30
0.0
 10
179.4100386694815
 20
133.6390864627173
 30
0.0
 10
179.3967369990824
 20
133.6374398130834
 30
0.0
 11
179.5269005748389
 21
133.6974419094278
 31
0.0
 11
179.5123196140825
 21
133.6720515243917
 31
0.0
 11
179.4703113394077
 21
133.6516158532827
 31
0.0
 11
179.4362995376918
 21
133.6432551383047
 31
0.0
 11
179.3967369990824
 21
133.6374398130834
 31
0.0
  0
SPLINE
  5
43C
330
1F
100
AcDbEntity
  8
0
  6
Continuous
 62
     7
100
AcDbSpline
210
0.0
220
0.0
230
1.0
 70
     8
 71
     3
 72
    11
 73
     7
 74
     5
 42
0.000000001
 43
0.0000000001
 44
0.00000001
 40
0.0
 40
0.0
 40
0.0
 40
0.0
 40
0.029279273284073
 40
0.0759944821979197
 40
0.1110188199998648
 40
0.1510064836647652
 40
0.1510064836647652
 40
0.1510064836647652
 40
0.1510064836647652
 10
184.0269005748389
 20
133.6974419094278
 30
0.0
 10
184.0228293863862
 20
133.6881984755662
 30
0.0
 10
184.0122625835493
 20
133.664207113199
 30
0.0
 10
183.9735272596918
 20
133.6521867261307
 30
0.0
 10
183.9349909877513
 20
133.6421753747512
 30
0.0
 10
183.9100386694812
 20
133.6390864627173
 30
0.0
 10
183.8967369990821
 20
133.6374398130834
 30
0.0
 11
184.0269005748389
 21
133.6974419094278
 31
0.0
 11
184.0123196140825
 21
133.6720515243917
 31
0.0
 11
183.9703113394077
 21
133.6516158532827
 31
0.0
 11
183.9362995376917
 21
133.6432551383047
 31
0.0
 11
183.8967369990821
 21
133.6374398130834
 31
0.0
  0
SPLINE
  5
43D
330
1F
100
AcDbEntity
  8
0
  6
Continuous
 62
     7
100
AcDbSpline
210
0.0
220
0.0
230
1.0
 70
     8
 71
     3
 72
    11
 73
     7
 74
     5
 42
0.000000001
 43
0.0000000001
 44
0.00000001
 40
0.0
 40
0.0
 40
0.0
 40
0.0
 40
0.0292792732841223
 40
0.0759944821979061
 40
0.111018819999996
 40
0.1510064836651777
 40
0.1510064836651777
 40
0.1510064836651777
 40
0.1510064836651777
 10
188.5269005748389
 20
133.6974419094278
 30
0.0
 10
188.5228293863862
 20
133.6881984755662
 30
0.0
 10
188.5122625835493
 20
133.6642071131989
 30
0.0
 10
188.4735272596918
 20
133.6521867261308
 30
0.0
 10
188.4349909877512
 20
133.6421753747512
 30
0.0
 10
188.410038669481
 20
133.6390864627173
 30
0.0
 10
188.3967369990817
 20
133.6374398130834
 30
0.0
 11
188.5269005748389
 21
133.6974419094278
 31
0.0
 11
188.5123196140825
 21
133.6720515243917
 31
0.0
 11
188.4703113394077
 21
133.6516158532827
 31
0.0
 11
188.4362995376916
 21
133.6432551383047
 31
0.0
 11
188.3967369990817
 21
133.6374398130834
 31
0.0
  0
SPLINE
  5
43E
330
1F
100
AcDbEntity
  8
0
  6
Continuous
 62
     7
100
AcDbSpline
210
0.0
220
0.0
230
1.0
 70
     8
 71
     3
 72
    11
 73
     7
 74
     5
 42
0.000000001
 43
0.0000000001
 44
0.00000001
 40
0.0
 40
0.0
 40
0.0
 40
0.0
 40
0.0292792719089166
 40
0.0759944847307855
 40
0.1423964688943946
 40
0.2208651074522986
 40
0.2208651074522986
 40
0.2208651074522986
 40
0.2208651074522986
 10
183.0269005748389
 20
139.9199815838694
 30
0.0
 10
183.0309856501488
 20
139.9292196797386
 30
0.0
 10
183.0415884965838
 20
139.9531971890574
 30
0.0
 10
183.0908133760565
 20
139.968791113466
 30
0.0
 10
183.1518976627885
 20
139.9815536350493
 30
0.0
 10
183.2005488419077
 20
139.9828896633776
 30
0.0
 10
183.2269005748389
 20
139.9836133199261
 30
0.0
 11
183.0269005748389
 21
139.9199815838694
 31
0.0
 11
183.0414815355952
 21
139.9453719689055
 31
0.0
 11
183.08348981027
 21
139.9658076400145
 31
0.0
 11
183.1485674975082
 21
139.9790030201281
 31
0.0
 11
183.2269005748389
 21
139.9836133199261
 31
0.0
  0
SPLINE
  5
43F
330
1F
100
AcDbEntity
  8
0
  6
Continuous
 62
     7
100
AcDbSpline
210
0.0
220
0.0
230
1.0
 70
     8
 71
     3
 72
    11
 73
     7
 74
     5
 42
0.000000001
 43
0.0000000001
 44
0.00000001
 40
0.0
 40
0.0
 40
0.0
 40
0.0
 40
0.029279271908839
 40
0.0759944847307714
 40
0.1423964688943583
 40
0.2208651074522908
 40
0.2208651074522908
 40
0.2208651074522908
 40
0.2208651074522908
 10
187.5269005748389
 20
139.9199815838694
 30
0.0
 10
187.5309856501487
 20
139.9292196797386
 30
0.0
 10
187.5415884965839
 20
139.9531971890574
 30
0.0
 10
187.5908133760565
 20
139.968791113466
 30
0.0
 10
187.6518976627885
 20
139.9815536350492
 30
0.0
 10
187.7005488419076
 20
139.9828896633776
 30
0.0
 10
187.7269005748389
 20
139.9836133199261
 30
0.0
 11
187.5269005748389
 21
139.9199815838694
 31
0.0
 11
187.5414815355952
 21
139.9453719689054
 31
0.0
 11
187.58348981027
 21
139.9658076400145
 31
0.0
 11
187.6485674975082
 21
139.9790030201281
 31
0.0
 11
187.7269005748389
 21
139.9836133199261
 31
0.0
  0
SPLINE
  5
440
330
1F
100
AcDbEntity
  8
0
  6
Continuous
 62
     7
100
AcDbSpline
210
0.0
220
0.0
230
1.0
 70
     8
 71
     3
 72
    11
 73
     7
 74
     5
 42
0.000000001
 43
0.0000000001
 44
0.00000001
 40
0.0
 40
0.0
 40
0.0
 40
0.0
 40
0.0292792719089166
 40
0.0759944847307855
 40
0.1423964688943946
 40
0.2208651074522986
 40
0.2208651074522986
 40
0.2208651074522986
 40
0.2208651074522986
 10
178.5269005748389
 20
139.9199815838694
 30
0.0
 10
178.5309856501488
 20
139.9292196797386
 30
0.0
 10
178.5415884965838
 20
139.9531971890574
 30
0.0
 10
178.5908133760565
 20
139.968791113466
 30
0.0
 10
178.6518976627885
 20
139.9815536350493
 30
0.0
 10
178.7005488419076
 20
139.9828896633776
 30
0.0
 10
178.7269005748389
 20
139.9836133199261
 30
0.0
 11
178.5269005748389
 21
139.9199815838694
 31
0.0
 11
178.5414815355952
 21
139.9453719689055
 31
0.0
 11
178.58348981027
 21
139.9658076400145
 31
0.0
 11
178.6485674975082
 21
139.9790030201281
 31
0.0
 11
178.7269005748389
 21
139.9836133199261
 31
0.0
  0
SPLINE
  5
441
330
1F
100
AcDbEntity
  8
0
  6
Continuous
 62
     7
100
AcDbSpline
210
0.0
220
0.0
230
1.0
 70
     8
 71
     3
 72
    11
 73
     7
 74
     5
 42
0.000000001
 43
0.0000000001
 44
0.00000001
 40
0.0
 40
0.0
 40
0.0
 40
0.0
 40
0.0784436455667964
 40
0.1447504994347543
 40
0.1914711899092972
 40
0.2208359292091807
 40
0.2208359292091807
 40
0.2208359292091807
 40
0.2208359292091807
 10
179.3269005748389
 20
139.9836133199261
 30
0.0
 10
179.3532412600278
 20
139.9828829773546
 30
0.0
 10
179.4018472005114
 20
139.9815352939303
 30
0.0
 10
179.4629241327362
 20
139.9688311562078
 30
0.0
 10
179.5120990731685
 20
139.9532032267287
 30
0.0
 10
179.5227788004456
 20
139.9292328274902
 30
0.0
 10
179.5269005748389
 20
139.9199815838694
 30
0.0
 11
179.3269005748389
 21
139.9836133199261
 31
0.0
 11
179.405208291176
 21
139.9789975077098
 31
0.0
 11
179.4701972599158
 21
139.9658433166846
 31
0.0
 11
179.5122121365682
 21
139.9454086953962
 31
0.0
 11
179.5269005748389
 21
139.9199815838694
 31
0.0
  0
SPLINE
  5
442
330
1F
100
AcDbEntity
  8
0
  6
Continuous
 62
     7
100
AcDbSpline
210
0.0
220
0.0
230
1.0
 70
     8
 71
     3
 72
    11
 73
     7
 74
     5
 42
0.000000001
 43
0.0000000001
 44
0.00000001
 40
0.0
 40
0.0
 40
0.0
 40
0.0
 40
0.0784436455667964
 40
0.1447504994347543
 40
0.1914711899092972
 40
0.2208359292091807
 40
0.2208359292091807
 40
0.2208359292091807
 40
0.2208359292091807
 10
183.8269005748389
 20
139.9836133199261
 30
0.0
 10
183.8532412600278
 20
139.9828829773546
 30
0.0
 10
183.9018472005114
 20
139.9815352939303
 30
0.0
 10
183.9629241327361
 20
139.9688311562078
 30
0.0
 10
184.0120990731685
 20
139.9532032267287
 30
0.0
 10
184.0227788004456
 20
139.9292328274902
 30
0.0
 10
184.0269005748389
 20
139.9199815838694
 30
0.0
 11
183.8269005748389
 21
139.9836133199261
 31
0.0
 11
183.905208291176
 21
139.9789975077098
 31
0.0
 11
183.9701972599158
 21
139.9658433166846
 31
0.0
 11
184.0122121365682
 21
139.9454086953962
 31
0.0
 11
184.0269005748389
 21
139.9199815838694
 31
0.0
  0
SPLINE
  5
443
330
1F
100
AcDbEntity
  8
0
  6
Continuous
 62
     7
100
AcDbSpline
210
0.0
220
0.0
230
1.0
 70
     8
 71
     3
 72
    11
 73
     7
 74
     5
 42
0.000000001
 43
0.0000000001
 44
0.00000001
 40
0.0
 40
0.0
 40
0.0
 40
0.0
 40
0.0784436455667964
 40
0.1447504994347543
 40
0.1914711899092972
 40
0.2208359292091807
 40
0.2208359292091807
 40
0.2208359292091807
 40
0.2208359292091807
 10
188.3269005748389
 20
139.9836133199261
 30
0.0
 10
188.3532412600278
 20
139.9828829773546
 30
0.0
 10
188.4018472005114
 20
139.9815352939303
 30
0.0
 10
188.4629241327362
 20
139.9688311562078
 30
0.0
 10
188.5120990731685
 20
139.9532032267287
 30
0.0
 10
188.5227788004456
 20
139.9292328274902
 30
0.0
 10
188.5269005748389
 20
139.9199815838694
 30
0.0
 11
188.3269005748389
 21
139.9836133199261
 31
0.0
 11
188.405208291176
 21
139.9789975077098
 31
0.0
 11
188.4701972599158
 21
139.9658433166846
 31
0.0
 11
188.5122121365682
 21
139.9454086953962
 31
0.0
 11
188.5269005748389
 21
139.9199815838694
 31
0.0
  0
SPLINE
  5
444
330
1F
100
AcDbEntity
  8
0
  6
Continuous
 62
     7
100
AcDbSpline
210
0.0
220
0.0
230
1.0
 70
     8
 71
     3
 72
    11
 73
     7
 74
     5
 42
0.000000001
 43
0.0000000001
 44
0.00000001
 40
0.0
 40
0.0
 40
0.0
 40
0.0
 40
0.0784436455667681
 40
0.144750499434698
 40
0.1914711899092921
 40
0.220835929209204
 40
0.220835929209204
 40
0.220835929209204
 40
0.220835929209204
 10
87.32690057483887
 20
139.9836133199261
 30
0.0
 10
87.30055988965002
 20
139.9828829773547
 30
0.0
 10
87.25195394916635
 20
139.9815352939303
 30
0.0
 10
87.19087701694167
 20
139.9688311562078
 30
0.0
 10
87.14170207650925
 20
139.9532032267287
 30
0.0
 10
87.13102234923223
 20
139.9292328274902
 30
0.0
 10
87.12690057483883
 20
139.9199815838694
 30
0.0
 11
87.32690057483887
 21
139.9836133199261
 31
0.0
 11
87.24859285850181
 21
139.9789975077098
 31
0.0
 11
87.18360388976203
 21
139.9658433166846
 31
0.0
 11
87.14158901310962
 21
139.9454086953962
 31
0.0
 11
87.12690057483883
 21
139.9199815838694
 31
0.0
  0
SPLINE
  5
445
330
1F
100
AcDbEntity
  8
0
  6
Continuous
 62
     7
100
AcDbSpline
210
0.0
220
0.0
230
1.0
 70
     8
 71
     3
 72
    11
 73
     7
 74
     5
 42
0.000000001
 43
0.0000000001
 44
0.00000001
 40
0.0
 40
0.0
 40
0.0
 40
0.0
 40
0.0784436455667681
 40
0.144750499434698
 40
0.1914711899092793
 40
0.2208359292091415
 40
0.2208359292091415
 40
0.2208359292091415
 40
0.2208359292091415
 10
91.82690057483887
 20
139.9836133199261
 30
0.0
 10
91.80055988965
 20
139.9828829773547
 30
0.0
 10
91.75195394916635
 20
139.9815352939303
 30
0.0
 10
91.6908770169417
 20
139.9688311562078
 30
0.0
 10
91.64170207650925
 20
139.9532032267288
 30
0.0
 10
91.6310223492323
 20
139.9292328274902
 30
0.0
 10
91.62690057483894
 20
139.9199815838694
 30
0.0
 11
91.82690057483887
 21
139.9836133199261
 31
0.0
 11
91.74859285850181
 21
139.9789975077098
 31
0.0
 11
91.68360388976203
 21
139.9658433166846
 31
0.0
 11
91.64158901310964
 21
139.9454086953962
 31
0.0
 11
91.62690057483894
 21
139.9199815838694
 31
0.0
  0
SPLINE
  5
446
330
1F
100
AcDbEntity
  8
0
  6
Continuous
 62
     7
100
AcDbSpline
210
0.0
220
0.0
230
1.0
 70
     8
 71
     3
 72
    11
 73
     7
 74
     5
 42
0.000000001
 43
0.0000000001
 44
0.00000001
 40
0.0
 40
0.0
 40
0.0
 40
0.0
 40
0.0784436455667681
 40
0.144750499434698
 40
0.1914711899092665
 40
0.2208359292091358
 40
0.2208359292091358
 40
0.2208359292091358
 40
0.2208359292091358
 10
96.32690057483887
 20
139.9836133199261
 30
0.0
 10
96.30055988965
 20
139.9828829773547
 30
0.0
 10
96.25195394916636
 20
139.9815352939302
 30
0.0
 10
96.1908770169417
 20
139.9688311562078
 30
0.0
 10
96.14170207650928
 20
139.9532032267288
 30
0.0
 10
96.13102234923231
 20
139.9292328274902
 30
0.0
 10
96.12690057483894
 20
139.9199815838694
 30
0.0
 11
96.32690057483887
 21
139.9836133199261
 31
0.0
 11
96.24859285850181
 21
139.9789975077098
 31
0.0
 11
96.18360388976203
 21
139.9658433166846
 31
0.0
 11
96.14158901310965
 21
139.9454086953962
 31
0.0
 11
96.12690057483894
 21
139.9199815838694
 31
0.0
  0
SPLINE
  5
447
330
1F
100
AcDbEntity
  8
0
  6
Continuous
 62
     7
100
AcDbSpline
210
0.0
220
0.0
230
1.0
 70
     8
 71
     3
 72
    11
 73
     7
 74
     5
 42
0.000000001
 43
0.0000000001
 44
0.00000001
 40
0.0
 40
0.0
 40
0.0
 40
0.0
 40
0.0292792719088883
 40
0.0759944847306677
 40
0.1423964688942768
 40
0.2208651074521383
 40
0.2208651074521383
 40
0.2208651074521383
 40
0.2208651074521383
 10
97.12690057483883
 20
139.9199815838694
 30
0.0
 10
97.122815499529
 20
139.9292196797386
 30
0.0
 10
97.1122126530939
 20
139.9531971890574
 30
0.0
 10
97.06298777362133
 20
139.968791113466
 30
0.0
 10
97.00190348688943
 20
139.9815536350492
 30
0.0
 10
96.95325230777026
 20
139.9828896633776
 30
0.0
 10
96.92690057483901
 20
139.9836133199261
 30
0.0
 11
97.12690057483883
 21
139.9199815838694
 31
0.0
 11
97.11231961408257
 21
139.9453719689055
 31
0.0
 11
97.07031133940791
 21
139.9658076400145
 31
0.0
 11
97.00523365216965
 21
139.9790030201281
 31
0.0
 11
96.92690057483901
 21
139.9836133199261
 31
0.0
  0
SPLINE
  5
448
330
1F
100
AcDbEntity
  8
0
  6
Continuous
 62
     7
100
AcDbSpline
210
0.0
220
0.0
230
1.0
 70
     8
 71
     3
 72
    11
 73
     7
 74
     5
 42
0.000000001
 43
0.0000000001
 44
0.00000001
 40
0.0
 40
0.0
 40
0.0
 40
0.0
 40
0.0292792719088744
 40
0.0759944847307046
 40
0.1423964688943332
 40
0.2208651074521806
 40
0.2208651074521806
 40
0.2208651074521806
 40
0.2208651074521806
 10
88.12690057483894
 20
139.9199815838694
 30
0.0
 10
88.1228154995291
 20
139.9292196797386
 30
0.0
 10
88.11221265309389
 20
139.9531971890574
 30
0.0
 10
88.06298777362139
 20
139.968791113466
 30
0.0
 10
88.00190348688942
 20
139.9815536350492
 30
0.0
 10
87.95325230777023
 20
139.9828896633776
 30
0.0
 10
87.92690057483901
 20
139.9836133199261
 30
0.0
 11
88.12690057483894
 21
139.9199815838694
 31
0.0
 11
88.11231961408261
 21
139.9453719689054
 31
0.0
 11
88.07031133940791
 21
139.9658076400145
 31
0.0
 11
88.00523365216964
 21
139.9790030201281
 31
0.0
 11
87.92690057483901
 21
139.9836133199261
 31
0.0
  0
SPLINE
  5
449
330
1F
100
AcDbEntity
  8
0
  6
Continuous
 62
     7
100
AcDbSpline
210
0.0
220
0.0
230
1.0
 70
     8
 71
     3
 72
    11
 73
     7
 74
     5
 42
0.000000001
 43
0.0000000001
 44
0.00000001
 40
0.0
 40
0.0
 40
0.0
 40
0.0
 40
0.0292792719089166
 40
0.0759944847307471
 40
0.1423964688943702
 40
0.2208651074522175
 40
0.2208651074522175
 40
0.2208651074522175
 40
0.2208651074522175
 10
92.62690057483894
 20
139.9199815838694
 30
0.0
 10
92.6228154995291
 20
139.9292196797386
 30
0.0
 10
92.61221265309395
 20
139.9531971890574
 30
0.0
 10
92.56298777362139
 20
139.968791113466
 30
0.0
 10
92.50190348688938
 20
139.9815536350492
 30
0.0
 10
92.45325230777021
 20
139.9828896633776
 30
0.0
 10
92.42690057483901
 20
139.9836133199261
 30
0.0
 11
92.62690057483894
 21
139.9199815838694
 31
0.0
 11
92.61231961408262
 21
139.9453719689055
 31
0.0
 11
92.57031133940791
 21
139.9658076400145
 31
0.0
 11
92.50523365216964
 21
139.9790030201281
 31
0.0
 11
92.42690057483901
 21
139.9836133199261
 31
0.0
  0
SPLINE
  5
44A
330
1F
100
AcDbEntity
  8
0
  6
Continuous
 62
     7
100
AcDbSpline
210
0.0
220
0.0
230
1.0
 70
     8
 71
     3
 72
    11
 73
     7
 74
     5
 42
0.000000001
 43
0.0000000001
 44
0.00000001
 40
0.0
 40
0.0
 40
0.0
 40
0.0
 40
0.0292792732841365
 40
0.0759944821978947
 40
0.1110188200000674
 40
0.1510064836652209
 40
0.1510064836652209
 40
0.1510064836652209
 40
0.1510064836652209
 10
87.12690057483883
 20
133.6974419094278
 30
0.0
 10
87.13097176329154
 20
133.6881984755661
 30
0.0
 10
87.14153856612843
 20
133.664207113199
 30
0.0
 10
87.18027388998593
 20
133.6521867261307
 30
0.0
 10
87.2188101619266
 20
133.6421753747511
 30
0.0
 10
87.24376248019682
 20
133.6390864627173
 30
0.0
 10
87.25706415059608
 20
133.6374398130834
 30
0.0
 11
87.12690057483883
 21
133.6974419094278
 31
0.0
 11
87.14148153559523
 21
133.6720515243917
 31
0.0
 11
87.18348981027
 21
133.6516158532827
 31
0.0
 11
87.21750161198622
 21
133.6432551383047
 31
0.0
 11
87.25706415059608
 21
133.6374398130834
 31
0.0
  0
SPLINE
  5
44B
330
1F
100
AcDbEntity
  8
0
  6
Continuous
 62
     7
100
AcDbSpline
210
0.0
220
0.0
230
1.0
 70
     8
 71
     3
 72
    11
 73
     7
 74
     5
 42
0.000000001
 43
0.0000000001
 44
0.00000001
 40
0.0
 40
0.0
 40
0.0
 40
0.0
 40
0.0292792732840447
 40
0.0759944821978658
 40
0.1110188199998661
 40
0.1510064836647947
 40
0.1510064836647947
 40
0.1510064836647947
 40
0.1510064836647947
 10
91.62690057483894
 20
133.6974419094278
 30
0.0
 10
91.63097176329165
 20
133.6881984755662
 30
0.0
 10
91.64153856612845
 20
133.6642071131989
 30
0.0
 10
91.68027388998594
 20
133.6521867261307
 30
0.0
 10
91.71881016192647
 20
133.6421753747512
 30
0.0
 10
91.74376248019655
 20
133.6390864627173
 30
0.0
 10
91.75706415059574
 20
133.6374398130834
 30
0.0
 11
91.62690057483894
 21
133.6974419094278
 31
0.0
 11
91.64148153559526
 21
133.6720515243917
 31
0.0
 11
91.68348981027006
 21
133.6516158532827
 31
0.0
 11
91.71750161198611
 21
133.6432551383047
 31
0.0
 11
91.75706415059574
 21
133.6374398130834
 31
0.0
  0
SPLINE
  5
44C
330
1F
100
AcDbEntity
  8
0
  6
Continuous
 62
     7
100
AcDbSpline
210
0.0
220
0.0
230
1.0
 70
     8
 71
     3
 72
    11
 73
     7
 74
     5
 42
0.000000001
 43
0.0000000001
 44
0.00000001
 40
0.0
 40
0.0
 40
0.0
 40
0.0
 40
0.0292792732840164
 40
0.0759944821977608
 40
0.1110188199997197
 40
0.1510064836644937
 40
0.1510064836644937
 40
0.1510064836644937
 40
0.1510064836644937
 10
96.12690057483894
 20
133.6974419094278
 30
0.0
 10
96.1309717632916
 20
133.6881984755662
 30
0.0
 10
96.14153856612842
 20
133.664207113199
 30
0.0
 10
96.18027388998578
 20
133.6521867261307
 30
0.0
 10
96.21881016192626
 20
133.6421753747512
 30
0.0
 10
96.24376248019625
 20
133.6390864627173
 30
0.0
 10
96.2570641505954
 20
133.6374398130834
 30
0.0
 11
96.12690057483894
 21
133.6974419094278
 31
0.0
 11
96.1414815355952
 21
133.6720515243917
 31
0.0
 11
96.18348981026992
 21
133.6516158532827
 31
0.0
 11
96.21750161198592
 21
133.6432551383047
 31
0.0
 11
96.2570641505954
 21
133.6374398130834
 31
0.0
  0
SPLINE
  5
44D
330
1F
100
AcDbEntity
  8
0
  6
Continuous
 62
     7
100
AcDbSpline
210
0.0
220
0.0
230
1.0
 70
     8
 71
     3
 72
    11
 73
     7
 74
     5
 42
0.000000001
 43
0.0000000001
 44
0.00000001
 40
0.0
 40
0.0
 40
0.0
 40
0.0
 40
0.0400461369632331
 40
0.0749671653982271
 40
0.1216878519389302
 40
0.1510525926069134
 40
0.1510525926069134
 40
0.1510525926069134
 40
0.1510525926069134
 10
87.9966609919727
 20
133.6374398130834
 30
0.0
 10
88.00998130980126
 20
133.6390889796569
 30
0.0
 10
88.03491720965599
 20
133.6421762496504
 30
0.0
 10
88.07345965648469
 20
133.652149792124
 30
0.0
 10
88.11214858628914
 20
133.6642018696745
 30
0.0
 10
88.12279258831391
 20
133.6881855423474
 30
0.0
 10
88.12690057483894
 20
133.6974419094278
 30
0.0
 11
87.9966609919727
 21
133.6374398130834
 31
0.0
 11
88.0362819702114
 21
133.6432596403512
 31
0.0
 11
88.07019725991593
 21
133.6515801766126
 31
0.0
 11
88.11221213656826
 21
133.6720147979011
 31
0.0
 11
88.12690057483894
 21
133.6974419094278
 31
0.0
  0
SPLINE
  5
44E
330
1F
100
AcDbEntity
  8
0
  6
Continuous
 62
     7
100
AcDbSpline
210
0.0
220
0.0
230
1.0
 70
     8
 71
     3
 72
    11
 73
     7
 74
     5
 42
0.000000001
 43
0.0000000001
 44
0.00000001
 40
0.0
 40
0.0
 40
0.0
 40
0.0
 40
0.040046136962942
 40
0.07496716539786
 40
0.1216878519385637
 40
0.1510525926065541
 40
0.1510525926065541
 40
0.1510525926065541
 40
0.1510525926065541
 10
92.49666099197304
 20
133.6374398130834
 30
0.0
 10
92.5099813098015
 20
133.6390889796568
 30
0.0
 10
92.53491720965609
 20
133.6421762496504
 30
0.0
 10
92.57345965648469
 20
133.6521497921242
 30
0.0
 10
92.61214858628914
 20
133.6642018696745
 30
0.0
 10
92.6227925883139
 20
133.6881855423474
 30
0.0
 10
92.62690057483894
 20
133.6974419094278
 30
0.0
 11
92.49666099197304
 21
133.6374398130834
 31
0.0
 11
92.53628197021145
 21
133.6432596403512
 31
0.0
 11
92.57019725991589
 21
133.6515801766127
 31
0.0
 11
92.61221213656825
 21
133.6720147979011
 31
0.0
 11
92.62690057483894
 21
133.6974419094278
 31
0.0
  0
SPLINE
  5
44F
330
1F
100
AcDbEntity
  8
0
  6
Continuous
 62
     7
100
AcDbSpline
210
0.0
220
0.0
230
1.0
 70
     8
 71
     3
 72
     9
 73
     5
 74
     3
 42
0.000000001
 43
0.0000000001
 44
0.00000001
 40
0.0
 40
0.0
 40
0.0
 40
0.0
 40
0.0343453686803979
 40
0.0699553561893454
 40
0.0699553561893454
 40
0.0699553561893454
 40
0.0699553561893454
 10
96.2570641505954
 20
133.6374398130834
 30
0.0
 10
96.26846910541865
 20
133.6363875568205
 30
0.0
 10
96.29169895424675
 20
133.6342443194848
 30
0.0
 10
96.31502613523726
 20
133.6339566156193
 30
0.0
 10
96.32690057483887
 20
133.6338101733711
 30
0.0
 11
96.2570641505954
 21
133.6374398130834
 31
0.0
 11
96.29130247707036
 21
133.6347303171465
 31
0.0
 11
96.32690057483887
 21
133.6338101733711
 31
0.0
  0
SPLINE
  5
450
330
1F
100
AcDbEntity
  8
0
  6
Continuous
 62
     7
100
AcDbSpline
210
0.0
220
0.0
230
1.0
 70
     8
 71
     3
 72
     9
 73
     5
 74
     3
 42
0.000000001
 43
0.0000000001
 44
0.00000001
 40
0.0
 40
0.0
 40
0.0
 40
0.0
 40
0.0343453686800251
 40
0.0699553561886615
 40
0.0699553561886615
 40
0.0699553561886615
 40
0.0699553561886615
 10
87.25706415059608
 20
133.6374398130834
 30
0.0
 10
87.26846910541921
 20
133.6363875568205
 30
0.0
 10
87.29169895424712
 20
133.6342443194849
 30
0.0
 10
87.31502613523732
 20
133.6339566156193
 30
0.0
 10
87.32690057483887
 20
133.6338101733711
 30
0.0
 11
87.25706415059608
 21
133.6374398130834
 31
0.0
 11
87.29130247707067
 21
133.6347303171466
 31
0.0
 11
87.32690057483887
 21
133.6338101733711
 31
0.0
  0
SPLINE
  5
451
330
1F
100
AcDbEntity
  8
0
  6
Continuous
 62
     7
100
AcDbSpline
210
0.0
220
0.0
230
1.0
 70
     8
 71
     3
 72
     9
 73
     5
 74
     3
 42
0.000000001
 43
0.0000000001
 44
0.00000001
 40
0.0
 40
0.0
 40
0.0
 40
0.0
 40
0.0343453686802942
 40
0.0699553561890017
 40
0.0699553561890017
 40
0.0699553561890017
 40
0.0699553561890017
 10
91.75706415059574
 20
133.6374398130834
 30
0.0
 10
91.76846910541897
 20
133.6363875568205
 30
0.0
 10
91.79169895424695
 20
133.6342443194849
 30
0.0
 10
91.81502613523733
 20
133.6339566156193
 30
0.0
 10
91.82690057483887
 20
133.6338101733711
 30
0.0
 11
91.75706415059574
 21
133.6374398130834
 31
0.0
 11
91.7913024770706
 21
133.6347303171466
 31
0.0
 11
91.82690057483887
 21
133.6338101733711
 31
0.0
  0
SPLINE
  5
452
330
1F
100
AcDbEntity
  8
0
  6
Continuous
 62
     7
100
AcDbSpline
210
0.0
220
0.0
230
1.0
 70
     8
 71
     3
 72
     9
 73
     5
 74
     3
 42
0.000000001
 43
0.0000000001
 44
0.00000001
 40
0.0
 40
0.0
 40
0.0
 40
0.0
 40
0.0356240853845567
 40
0.0698794482293426
 40
0.0698794482293426
 40
0.0698794482293426
 40
0.0698794482293426
 10
87.92690057483901
 20
133.6338101733711
 30
0.0
 10
87.93877972208742
 20
133.633957347245
 30
0.0
 10
87.96208160388727
 20
133.6342460603653
 30
0.0
 10
87.98528603072567
 20
133.6363892149163
 30
0.0
 10
87.9966609919727
 20
133.6374398130834
 30
0.0
 11
87.92690057483901
 21
133.6338101733711
 31
0.0
 11
87.96251268879092
 21
133.6347336549875
 31
0.0
 11
87.9966609919727
 21
133.6374398130834
 31
0.0
  0
SPLINE
  5
453
330
1F
100
AcDbEntity
  8
0
  6
Continuous
 62
     7
100
AcDbSpline
210
0.0
220
0.0
230
1.0
 70
     8
 71
     3
 72
     9
 73
     5
 74
     3
 42
0.000000001
 43
0.0000000001
 44
0.00000001
 40
0.0
 40
0.0
 40
0.0
 40
0.0
 40
0.0356240853848699
 40
0.0698794482297953
 40
0.0698794482297953
 40
0.0698794482297953
 40
0.0698794482297953
 10
96.92690057483901
 20
133.6338101733711
 30
0.0
 10
96.93877972208756
 20
133.6339573472451
 30
0.0
 10
96.9620816038875
 20
133.6342460603654
 30
0.0
 10
96.9852860307261
 20
133.6363892149164
 30
0.0
 10
96.99666099197316
 20
133.6374398130834
 30
0.0
 11
96.92690057483901
 21
133.6338101733711
 31
0.0
 11
96.96251268879124
 21
133.6347336549875
 31
0.0
 11
96.99666099197316
 21
133.6374398130834
 31
0.0
  0
SPLINE
  5
454
330
1F
100
AcDbEntity
  8
0
  6
Continuous
 62
     7
100
AcDbSpline
210
0.0
220
0.0
230
1.0
 70
     8
 71
     3
 72
     9
 73
     5
 74
     3
 42
0.000000001
 43
0.0000000001
 44
0.00000001
 40
0.0
 40
0.0
 40
0.0
 40
0.0
 40
0.0356240853847271
 40
0.0698794482296831
 40
0.0698794482296831
 40
0.0698794482296831
 40
0.0698794482296831
 10
92.42690057483901
 20
133.6338101733711
 30
0.0
 10
92.4387797220875
 20
133.6339573472451
 30
0.0
 10
92.46208160388741
 20
133.6342460603653
 30
0.0
 10
92.48528603072594
 20
133.6363892149163
 30
0.0
 10
92.49666099197304
 20
133.6374398130834
 30
0.0
 11
92.42690057483901
 21
133.6338101733711
 31
0.0
 11
92.4625126887911
 21
133.6347336549875
 31
0.0
 11
92.49666099197304
 21
133.6374398130834
 31
0.0
  0
SPLINE
  5
455
330
1F
100
AcDbEntity
  8
0
  6
Continuous
 62
     7
100
AcDbSpline
210
0.0
220
0.0
230
1.0
 70
     8
 71
     3
 72
    11
 73
     7
 74
     5
 42
0.000000001
 43
0.0000000001
 44
0.00000001
 40
0.0
 40
0.0
 40
0.0
 40
0.0
 40
0.0400461369629362
 40
0.0749671653976959
 40
0.121687851938412
 40
0.1510525926063668
 40
0.1510525926063668
 40
0.1510525926063668
 40
0.1510525926063668
 10
96.99666099197316
 20
133.6374398130834
 30
0.0
 10
97.0099813098016
 20
133.6390889796569
 30
0.0
 10
97.03491720965616
 20
133.6421762496506
 30
0.0
 10
97.07345965648472
 20
133.6521497921241
 30
0.0
 10
97.11214858628912
 20
133.6642018696745
 30
0.0
 10
97.1227925883138
 20
133.6881855423474
 30
0.0
 10
97.12690057483883
 20
133.6974419094278
 30
0.0
 11
96.99666099197316
 21
133.6374398130834
 31
0.0
 11
97.03628197021155
 21
133.6432596403513
 31
0.0
 11
97.07019725991584
 21
133.6515801766127
 31
0.0
 11
97.1122121365682
 21
133.6720147979011
 31
0.0
 11
97.12690057483883
 21
133.6974419094278
 31
0.0
  0
SPLINE
  5
456
330
1F
100
AcDbEntity
  8
0
  6
Continuous
 62
     7
100
AcDbSpline
210
0.0
220
0.0
230
1.0
 70
     8
 71
     3
 72
    11
 73
     7
 74
     5
 42
0.000000001
 43
0.0000000001
 44
0.00000001
 40
0.0
 40
0.0
 40
0.0
 40
0.0
 40
1.894950990208072
 40
3.492046667347799
 40
5.534605043326152
 40
6.94594406126267
 40
6.94594406126267
 40
6.94594406126267
 40
6.94594406126267
 10
74.62690057483894
 20
141.16017907759
 30
0.0
 10
75.2585466508778
 20
141.1623196082014
 30
0.0
 10
76.42255436731307
 20
141.1662641986657
 30
0.0
 10
78.26740553739985
 20
141.1766584477743
 30
0.0
 10
79.9510739238313
 20
141.1689307431298
 30
0.0
 10
81.10234808141297
 20
141.1616761437355
 30
0.0
 10
81.57278421586693
 20
141.1587117466486
 30
0.0
 11
74.62690057483894
 21
141.16017907759
 31
0.0
 11
76.52183791991693
 21
141.1673702926033
 31
0.0
 11
78.11892208785753
 21
141.1734334999003
 31
0.0
 11
80.16147118245199
 21
141.1672759402142
 31
0.0
 11
81.57278421586693
 21
141.1587117466486
 31
0.0
  0
MTEXT
  5
458
330
1F
100
AcDbEntity
  8
1
 62
     4
100
AcDbMText
 10
247.3069005748388
 20
126.4587117466484
 30
0.0
 40
1.5
 41
0.0
 71
     5
 72
     1
  1
1
  7
CONVERTER_13
 73
     1
 44
1.32052821128451
  0
MTEXT
  5
459
330
1F
100
AcDbEntity
  8
1
 62
     4
100
AcDbMText
 10
268.4469005748389
 20
126.4587117466484
 30
0.0
 40
1.5
 41
0.0
 71
     5
 72
     1
  1
8
  7
CONVERTER_13
 73
     1
 44
1.32052821128451
  0
MTEXT
  5
45A
330
1F
100
AcDbEntity
  8
1
 62
     4
100
AcDbMText
 10
250.3269005748388
 20
126.4587117466484
 30
0.0
 40
1.5
 41
0.0
 71
     5
 72
     1
  1
2
  7
CONVERTER_13
 73
     1
 44
1.32052821128451
  0
MTEXT
  5
45B
330
1F
100
AcDbEntity
  8
1
 62
     4
100
AcDbMText
 10
253.3469005748387
 20
126.4587117466484
 30
0.0
 40
1.5
 41
0.0
 71
     5
 72
     1
  1
3
  7
CONVERTER_13
 73
     1
 44
1.32052821128451
  0
MTEXT
  5
45C
330
1F
100
AcDbEntity
  8
1
 62
     4
100
AcDbMText
 10
256.3669005748387
 20
126.4587117466484
 30
0.0
 40
1.5
 41
0.0
 71
     5
 72
     1
  1
4
  7
CONVERTER_13
 73
     1
 44
1.32052821128451
  0
MTEXT
  5
45D
330
1F
100
AcDbEntity
  8
1
 62
     4
100
AcDbMText
 10
259.3869005748387
 20
126.4587117466484
 30
0.0
 40
1.5
 41
0.0
 71
     5
 72
     1
  1
5
  7
CONVERTER_13
 73
     1
 44
1.32052821128451
  0
MTEXT
  5
45E
330
1F
100
AcDbEntity
  8
1
 62
     4
100
AcDbMText
 10
262.4069005748387
 20
126.4587117466484
 30
0.0
 40
1.5
 41
0.0
 71
     5
 72
     1
  1
6
  7
CONVERTER_13
 73
     1
 44
1.32052821128451
  0
MTEXT
  5
45F
330
1F
100
AcDbEntity
  8
1
 62
     4
100
AcDbMText
 10
265.4269005748387
 20
126.4587117466484
 30
0.0
 40
1.5
 41
0.0
 71
     5
 72
     1
  1
7
  7
CONVERTER_13
 73
     1
 44
1.32052821128451
  0
MTEXT
  5
460
330
1F
100
AcDbEntity
  8
1
 62
     4
100
AcDbMText
 10
152.926900574839
 20
90.60279147058412
 30
0.0
 40
2.0
 41
0.0
 71
     2
 72
     1
  1
1\P2\P3\P4\P5\P6\P7\P8\PS
  7
CONVERTER_13
 73
     1
 44
1.32052821128451
  0
MTEXT
  5
461
330
1F
100
AcDbEntity
  8
1
 62
     4
100
AcDbMText
 10
122.726900574839
 20
90.60279147058412
 30
0.0
 40
2.0
 41
0.0
 71
     2
 72
     1
  1
1\P2\P3\P4\P5\P6\P7\P8\PS
  7
CONVERTER_13
 73
     1
 44
1.32052821128451
  0
MTEXT
  5
462
330
1F
100
AcDbEntity
  8
Symbole_TC_020513_DIN_
 62
     7
100
AcDbMText
 10
137.8269005748389
 20
97.30239925738584
 30
0.0
 40
3.49999994039535
 41
0.0
 71
     8
 72
     1
  1
Wiring Diagram
  7
CONVERTER_11
 73
     1
 44
1.0
  0
MTEXT
  5
463
330
1F
100
AcDbEntity
  8
1
 62
     7
100
AcDbMText
 10
252.0000000000001
 20
95.0
 30
0.0
 40
3.5
 41
0.0
 71
     5
 72
     1
  1
Part number
  7
CONVERTER_11
 73
     1
 44
1.32052821128451
  0
MTEXT
  5
464
330
1F
100
AcDbEntity
  8
1
 62
     7
100
AcDbMText
 10
274.5000000000001
 20
95.0
 30
0.0
 40
3.5
 41
0.0
 71
     5
 72
     1
  1
L (m)
  7
CONVERTER_11
 73
     1
 44
1.32052821128451
  0
MTEXT
  5
465
330
1F
100
AcDbEntity
  8
1
 62
     4
100
AcDbMText
 10
252.0000000000001
 20
89.0
 30
0.0
 40
2.5
 41
0.0
 71
     5
 72
     1
  1
CW 1 J2M87
  7
CONVERTER_13
 73
     1
 44
1.32052821128451
  0
MTEXT
  5
466
330
1F
100
AcDbEntity
  8
1
 62
     4
100
AcDbMText
 10
274.5000000000001
 20
89.0
 30
0.0
 40
2.5
 41
0.0
 71
     5
 72
     1
  1
1,0
  7
CONVERTER_13
 73
     1
 44
1.32052821128451
  0
MTEXT
  5
467
330
1F
100
AcDbEntity
  8
1
 62
     4
100
AcDbMText
 10
274.5000000000001
 20
83.0
 30
0.0
 40
2.5
 41
0.0
 71
     5
 72
     1
  1
2,0
  7
CONVERTER_13
 73
     1
 44
1.32052821128451
  0
MTEXT
  5
468
330
1F
100
AcDbEntity
  8
1
 62
     4
100
AcDbMText
 10
252.0000000000001
 20
83.0
 30
0.0
 40
2.5
 41
0.0
 71
     5
 72
     1
  1
CW 2 J2M87
  7
CONVERTER_13
 73
     1
 44
1.32052821128451
  0
MTEXT
  5
469
330
1F
100
AcDbEntity
  8
1
 62
     4
100
AcDbMText
 10
252.0000000000001
 20
77.0
 30
0.0
 40
2.5
 41
0.0
 71
     5
 72
     1
  1
CW 3 J2M87
  7
CONVERTER_13
 73
     1
 44
1.32052821128451
  0
MTEXT
  5
46A
330
1F
100
AcDbEntity
  8
1
 62
     4
100
AcDbMText
 10
274.5000000000001
 20
77.0
 30
0.0
 40
2.5
 41
0.0
 71
     5
 72
     1
  1
3,0
  7
CONVERTER_13
 73
     1
 44
1.32052821128451
  0
MTEXT
  5
46B
330
1F
100
AcDbEntity
  8
1
 62
     4
100
AcDbMText
 10
274.5000000000001
 20
71.0
 30
0.0
 40
2.5
 41
0.0
 71
     5
 72
     1
  1
5,0
  7
CONVERTER_13
 73
     1
 44
1.32052821128451
  0
MTEXT
  5
46C
330
1F
100
AcDbEntity
  8
1
 62
     4
100
AcDbMText
 10
252.0000000000001
 20
71.0
 30
0.0
 40
2.5
 41
0.0
 71
     5
 72
     1
  1
CW 5 J2M87
  7
CONVERTER_13
 73
     1
 44
1.32052821128451
  0
MTEXT
  5
46D
330
1F
100
AcDbEntity
  8
1
 62
     4
100
AcDbMText
 10
252.0000000000001
 20
65.0
 30
0.0
 40
2.5
 41
0.0
 71
     5
 72
     1
  1
CW 7.5 J2M87
  7
CONVERTER_13
 73
     1
 44
1.32052821128451
  0
MTEXT
  5
46E
330
1F
100
AcDbEntity
  8
1
 62
     4
100
AcDbMText
 10
274.5000000000001
 20
65.0
 30
0.0
 40
2.5
 41
0.0
 71
     5
 72
     1
  1
7,5
  7
CONVERTER_13
 73
     1
 44
1.32052821128451
  0
MTEXT
  5
46F
330
1F
100
AcDbEntity
  8
1
 62
     4
100
AcDbMText
 10
274.5000000000001
 20
59.0
 30
0.0
 40
2.5
 41
0.0
 71
     5
 72
     1
  1
10,0
  7
CONVERTER_13
 73
     1
 44
1.32052821128451
  0
MTEXT
  5
470
330
1F
100
AcDbEntity
  8
1
 62
     4
100
AcDbMText
 10
252.0000000000001
 20
59.0
 30
0.0
 40
2.5
 41
0.0
 71
     5
 72
     1
  1
CW 10 J2M87
  7
CONVERTER_13
 73
     1
 44
1.32052821128451
  0
MTEXT
  5
471
330
1F
100
AcDbEntity
  8
1
 62
     4
100
AcDbMText
 10
252.0000000000001
 20
53.0
 30
0.0
 40
2.5
 41
0.0
 71
     5
 72
     1
  1
CW 15 J2M87
  7
CONVERTER_13
 73
     1
 44
1.32052821128451
  0
MTEXT
  5
472
330
1F
100
AcDbEntity
  8
1
 62
     4
100
AcDbMText
 10
274.5000000000001
 20
53.0
 30
0.0
 40
2.5
 41
0.0
 71
     5
 72
     1
  1
15,0
  7
CONVERTER_13
 73
     1
 44
1.32052821128451
  0
DIMENSION
  5
47D
330
1F
100
AcDbEntity
  8
1
100
AcDbDimension
  2
*D3
 10
61.6769005748389
 20
156.6587117466485
 30
0.0
 11
68.15190057483892
 21
161.1337117466485
 31
0.0
 70
    32
  1
12,4
 71
     5
 42
-1.0
 53
0.00013888888889
  3
ME10_DIM_10
100
AcDbAlignedDimension
 13
74.62690057483894
 23
141.16017907759
 33
0.0
 14
61.67690057483901
 24
140.1087117466488
 34
0.0
100
AcDbRotatedDimension
  0
DIMENSION
  5
488
330
1F
100
AcDbEntity
  8
1
100
AcDbDimension
  2
*D4
 10
177.0269005748389
 20
156.6587117466486
 30
0.0
 11
189.0269005748389
 21
160.1587117466486
 31
0.0
 70
    32
  1
<>
 71
     5
 42
-1.0
 53
0.00013888888889
  3
ME10_DIM_11
100
AcDbAlignedDimension
 13
201.0269005748389
 23
141.16017907759
 33
0.0
 14
177.0269005748389
 24
141.1587117466486
 34
0.0
100
AcDbRotatedDimension
  0
DIMENSION
  5
493
330
1F
100
AcDbEntity
  8
1
100
AcDbDimension
  2
*D5
 10
59.37690057483897
 20
112.4587117466486
 30
0.0
 11
137.8269005748389
 21
115.9587117466486
 31
0.0
 70
    32
  1
L (m) \U+00b150 mm
 71
     5
 42
-1.0
 53
0.00013888888889
  3
ME10_DIM_12
100
AcDbAlignedDimension
 13
216.2769005748388
 23
138.2087117466488
 33
0.0
 14
59.37690057483894
 24
138.2087117466488
 34
0.0
100
AcDbRotatedDimension
  0
DIMENSION
  5
49E
330
1F
100
AcDbEntity
  8
1
100
AcDbDimension
  2
*D6
 10
251.2769005748387
 20
156.6587117466486
 30
0.0
 11
257.8769005748387
 21
160.3087117466486
 31
0.0
 70
    32
  1
<>
 71
     5
 42
-1.0
 53
0.00013888888889
  3
ME10_DIM_13
100
AcDbAlignedDimension
 13
264.4769005748389
 23
140.8087117466487
 33
0.0
 14
251.2769005748388
 24
140.8087117466487
 34
0.0
100
AcDbRotatedDimension
  0
DIMENSION
  5
4A9
330
1F
100
AcDbEntity
  8
1
100
AcDbDimension
  2
*D7
 10
213.9769005748388
 20
156.6587117466485
 30
0.0
 11
207.5019005748388
 21
161.1337117466485
 31
0.0
 70
    32
  1
12,4
 71
     5
 42
-1.0
 53
0.00013888888889
  3
ME10_DIM_14
100
AcDbAlignedDimension
 13
201.0269005748389
 23
141.16017907759
 33
0.0
 14
213.9769005748389
 24
140.1087117466488
 34
0.0
100
AcDbRotatedDimension
  0
DIMENSION
  5
4B4
330
1F
100
AcDbEntity
  8
1
100
AcDbDimension
  2
*D8
 10
74.62690057483894
 20
156.6587117466486
 30
0.0
 11
86.62690057483894
 21
160.1587117466486
 31
0.0
 70
    32
  1
<>
 71
     5
 42
-1.0
 53
0.00013888888889
  3
ME10_DIM_15
100
AcDbAlignedDimension
 13
98.62690057483894
 23
141.1587117466486
 33
0.0
 14
74.62690057483894
 24
141.16017907759
 34
0.0
100
AcDbRotatedDimension
  0
ENDSEC
  0
SECTION
  2
OBJECTS
  0
DICTIONARY
  5
C
330
0
100
AcDbDictionary
281
     1
  3
ACAD_GROUP
350
D
  3
ACAD_LAYOUT
350
1A
  3
ACAD_MATERIAL
350
3B
  3
ACAD_MLEADERSTYLE
350
4B7
  3
ACAD_MLINESTYLE
350
17
  3
ACAD_PLOTSETTINGS
350
19
  3
ACAD_PLOTSTYLENAME
350
E
  3
ACAD_VISUALSTYLE
350
2A
  3
AcDbVariableDictionary
350
4B5
  0
DICTIONARY
  5
D
102
{ACAD_REACTORS
330
C
102
}
330
C
100
AcDbDictionary
281
     1
  0
DICTIONARY
  5
1A
102
{ACAD_REACTORS
330
C
102
}
330
C
100
AcDbDictionary
281
     1
  3
Layout1
350
1E
  3
Layout2
350
26
  3
Model
350
22
  0
DICTIONARY
  5
3B
102
{ACAD_REACTORS
330
C
102
}
330
C
100
AcDbDictionary
281
     1
  3
ByBlock
350
3D
  3
ByLayer
350
3C
  3
Global
350
3E
  0
DICTIONARY
  5
4B7
102
{ACAD_REACTORS
330
C
102
}
330
C
100
AcDbDictionary
281
     1
  0
DICTIONARY
  5
17
102
{ACAD_REACTORS
330
C
102
}
330
C
100
AcDbDictionary
281
     1
  3
Standard
350
18
  0
DICTIONARY
  5
19
102
{ACAD_REACTORS
330
C
102
}
330
C
100
AcDbDictionary
281
     1
  0
ACDBDICTIONARYWDFLT
  5
E
102
{ACAD_REACTORS
330
C
102
}
330
C
100
AcDbDictionary
281
     1
  3
Normal
350
F
100
AcDbDictionaryWithDefault
340
F
  0
DICTIONARY
  5
2A
102
{ACAD_REACTORS
330
C
102
}
330
C
100
AcDbDictionary
281
     1
  3
2dWireframe
350
2F
  3
3D Hidden
350
31
  3
3dWireframe
350
30
  3
Basic
350
32
  3
Brighten
350
36
  3
ColorChange
350
3A
  3
Conceptual
350
34
  3
Dim
350
35
  3
Facepattern
350
39
  3
Flat
350
2B
  3
FlatWithEdges
350
2C
  3
Gouraud
350
2D
  3
GouraudWithEdges
350
2E
  3
Linepattern
350
38
  3
Realistic
350
33
  3
Thicken
350
37
  0
DICTIONARY
  5
4B5
102
{ACAD_REACTORS
330
C
102
}
330
C
100
AcDbDictionary
281
     1
  3
DIMASSOC
350
4B8
  3
HIDETEXT
350
4B9
  0
LAYOUT
  5
1E
102
{ACAD_REACTORS
330
1A
102
}
330
1A
100
AcDbPlotSettings
  1

  2
none_device
  4

  6

 40
0.0
 41
0.0
 42
0.0
 43
0.0
 44
0.0
 45
0.0
 46
0.0
 47
0.0
 48
0.0
 49
0.0
140
0.0
141
0.0
142
1.0
143
1.0
 70
   688
 72
     0
 73
     0
 74
     5
  7

 75
    16
147
1.0
148
0.0
149
0.0
100
AcDbLayout
  1
Layout1
 70
     1
 71
     1
 10
0.0
 20
0.0
 11
12.0
 21
9.0
 12
0.0
 22
0.0
 32
0.0
 14
1.00000000000000E+20
 24
1.00000000000000E+20
 34
1.00000000000000E+20
 15
-1.00000000000000E+20
 25
-1.00000000000000E+20
 35
-1.00000000000000E+20
146
0.0
 13
0.0
 23
0.0
 33
0.0
 16
1.0
 26
0.0
 36
0.0
 17
0.0
 27
1.0
 37
0.0
 76
     0
330
1B
  0
LAYOUT
  5
26
102
{ACAD_REACTORS
330
1A
102
}
330
1A
100
AcDbPlotSettings
  1

  2
none_device
  4

  6

 40
0.0
 41
0.0
 42
0.0
 43
0.0
 44
0.0
 45
0.0
 46
0.0
 47
0.0
 48
0.0
 49
0.0
140
0.0
141
0.0
142
1.0
143
1.0
 70
   688
 72
     0
 73
     0
 74
     5
  7

 75
    16
147
1.0
148
0.0
149
0.0
100
AcDbLayout
  1
Layout2
 70
     1
 71
     2
 10
0.0
 20
0.0
 11
0.0
 21
0.0
 12
0.0
 22
0.0
 32
0.0
 14
0.0
 24
0.0
 34
0.0
 15
0.0
 25
0.0
 35
0.0
146
0.0
 13
0.0
 23
0.0
 33
0.0
 16
1.0
 26
0.0
 36
0.0
 17
0.0
 27
1.0
 37
0.0
 76
     0
330
23
  0
LAYOUT
  5
22
102
{ACAD_REACTORS
330
1A
102
}
330
1A
100
AcDbPlotSettings
  1

  2
none_device
  4

  6

 40
0.0
 41
0.0
 42
0.0
 43
0.0
 44
0.0
 45
0.0
 46
0.0
 47
0.0
 48
0.0
 49
0.0
140
0.0
141
0.0
142
1.0
143
1.0
 70
  1712
 72
     0
 73
     0
 74
     0
  7

 75
     0
147
1.0
148
0.0
149
0.0
100
AcDbLayout
  1
Model
 70
     1
 71
     0
 10
0.0
 20
0.0
 11
12.0
 21
9.0
 12
0.0
 22
0.0
 32
0.0
 14
0.0
 24
0.0
 34
0.0
 15
297.0000000000001
 25
210.0000000000001
 35
0.0
146
0.0
 13
0.0
 23
0.0
 33
0.0
 16
1.0
 26
0.0
 36
0.0
 17
0.0
 27
1.0
 37
0.0
 76
     0
330
1F
331
29
  0
MATERIAL
  5
3D
102
{ACAD_REACTORS
330
3B
102
}
102
{ACAD_XDICTIONARY
360
4DC
102
}
330
3B
100
AcDbMaterial
  1
ByBlock
  0
MATERIAL
  5
3C
102
{ACAD_REACTORS
330
3B
102
}
102
{ACAD_XDICTIONARY
360
4DA
102
}
330
3B
100
AcDbMaterial
  1
ByLayer
  0
MATERIAL
  5
3E
102
{ACAD_REACTORS
330
3B
102
}
102
{ACAD_XDICTIONARY
360
4DE
102
}
330
3B
100
AcDbMaterial
  1
Global
  0
MLINESTYLE
  5
18
102
{ACAD_REACTORS
330
17
102
}
330
17
100
AcDbMlineStyle
  2
Standard
 70
     0
  3

 62
   256
 51
90.0
 52
90.0
 71
     2
 49
0.5
 62
   256
  6
BYLAYER
 49
-0.5
 62
   256
  6
BYLAYER
  0
ACDBPLACEHOLDER
  5
F
102
{ACAD_REACTORS
330
E
102
}
330
E
  0
VISUALSTYLE
  5
2F
102
{ACAD_REACTORS
330
2A
102
}
102
{ACAD_XDICTIONARY
360
4C2
102
}
330
2A
100
AcDbVisualStyle
  2
2dWireframe
 70
     4
 71
     0
 72
     2
 73
     0
 90
        0
 40
-0.6
 41
-30.0
 62
     5
 63
     7
 74
     1
 91
        4
 64
     7
 65
   257
 75
     1
175
     1
 42
1.0
 92
        0
 66
   257
 43
1.0
 76
     1
 77
     6
 78
     2
 67
     7
 79
     5
170
     0
171
     0
290
     0
174
     0
 93
        1
 44
0.0
173
     0
291
     0
 45
0.0
1001
ACAD
1000
AcDbSavedByObjectVersion
1070
     0
  0
VISUALSTYLE
  5
31
102
{ACAD_REACTORS
330
2A
102
}
102
{ACAD_XDICTIONARY
360
4C6
102
}
330
2A
100
AcDbVisualStyle
  2
3D Hidden
 70
     6
 71
     1
 72
     2
 73
     2
 90
        0
 40
-0.6
 41
-30.0
 62
     5
 63
     7
 74
     2
 91
        2
 64
     7
 65
   257
 75
     2
175
     1
 42
40.0
 92
        0
 66
   257
 43
1.0
 76
     1
 77
     6
 78
     2
 67
     7
 79
     3
170
     0
171
     0
290
     0
174
     0
 93
        1
 44
0.0
173
     0
291
     0
 45
0.0
1001
ACAD
1000
AcDbSavedByObjectVersion
1070
     0
  0
VISUALSTYLE
  5
30
102
{ACAD_REACTORS
330
2A
102
}
102
{ACAD_XDICTIONARY
360
4C4
102
}
330
2A
100
AcDbVisualStyle
  2
3dWireframe
 70
     5
 71
     0
 72
     2
 73
     0
 90
        0
 40
-0.6
 41
-30.0
 62
     5
 63
     7
 74
     1
 91
        4
 64
     7
 65
   257
 75
     1
175
     1
 42
1.0
 92
        0
 66
   257
 43
1.0
 76
     1
 77
     6
 78
     2
 67
     7
 79
     5
170
     0
171
     0
290
     0
174
     0
 93
        1
 44
0.0
173
     0
291
     0
 45
0.0
1001
ACAD
1000
AcDbSavedByObjectVersion
1070
     0
  0
VISUALSTYLE
  5
32
102
{ACAD_REACTORS
330
2A
102
}
102
{ACAD_XDICTIONARY
360
4C8
102
}
330
2A
100
AcDbVisualStyle
  2
Basic
 70
     7
 71
     1
 72
     0
 73
     1
 90
        0
 40
-0.6
 41
-30.0
 62
     5
 63
     7
 74
     0
 91
        4
 64
     7
 65
   257
 75
     1
175
     1
 42
1.0
 92
        8
 66
     7
 43
1.0
 76
     1
 77
     6
 78
     2
 67
     7
 79
     5
170
     0
171
     0
290
     0
174
     0
 93
        1
 44
0.0
173
     0
291
     1
 45
0.0
1001
ACAD
1000
AcDbSavedByObjectVersion
1070
     0
  0
VISUALSTYLE
  5
36
102
{ACAD_REACTORS
330
2A
102
}
102
{ACAD_XDICTIONARY
360
4D0
102
}
330
2A
100
AcDbVisualStyle
  2
Brighten
 70
    12
 71
     2
 72
     2
 73
     0
 90
        0
 40
-0.6
 41
-30.0
 62
     5
 63
     7
 74
     1
 91
        4
 64
     7
 65
   257
 75
     1
175
     1
 42
1.0
 92
        8
 66
     7
 43
1.0
 76
     1
 77
     6
 78
     2
 67
     7
 79
     5
170
     0
171
     0
290
     0
174
     0
 93
        1
 44
50.0
173
     0
291
     1
 45
0.0
1001
ACAD
1000
AcDbSavedByObjectVersion
1070
     0
  0
VISUALSTYLE
  5
3A
102
{ACAD_REACTORS
330
2A
102
}
102
{ACAD_XDICTIONARY
360
4D8
102
}
330
2A
100
AcDbVisualStyle
  2
ColorChange
 70
    16
 71
     2
 72
     2
 73
     3
 90
        0
 40
-0.6
 41
-30.0
 62
     5
 63
     8
 74
     1
 91
        4
 64
     7
 65
   257
 75
     1
175
     1
 42
1.0
 92
        8
 66
     8
 43
1.0
 76
     1
 77
     6
 78
     2
 67
     7
 79
     5
170
     0
171
     0
290
     0
174
     0
 93
        1
 44
0.0
173
     0
291
     1
 45
0.0
1001
ACAD
1000
AcDbSavedByObjectVersion
1070
     0
  0
VISUALSTYLE
  5
34
102
{ACAD_REACTORS
330
2A
102
}
102
{ACAD_XDICTIONARY
360
4CC
102
}
330
2A
100
AcDbVisualStyle
  2
Conceptual
 70
     9
 71
     3
 72
     2
 73
     0
 90
        0
 40
-0.6
 41
-30.0
 62
     5
 63
     7
 74
     2
 91
        2
 64
     7
 65
   257
 75
     1
175
     1
 42
40.0
 92
        8
 66
     7
 43
1.0
 76
     1
 77
     6
 78
     2
 67
     7
 79
     3
170
     0
171
     0
290
     0
174
     0
 93
        1
 44
0.0
173
     0
291
     0
 45
0.0
1001
ACAD
1000
AcDbSavedByObjectVersion
1070
     0
  0
VISUALSTYLE
  5
35
102
{ACAD_REACTORS
330
2A
102
}
102
{ACAD_XDICTIONARY
360
4CE
102
}
330
2A
100
AcDbVisualStyle
  2
Dim
 70
    11
 71
     2
 72
     2
 73
     0
 90
        0
 40
-0.6
 41
-30.0
 62
     5
 63
     7
 74
     1
 91
        4
 64
     7
 65
   257
 75
     1
175
     1
 42
1.0
 92
        8
 66
     7
 43
1.0
 76
     1
 77
     6
 78
     2
 67
     7
 79
     5
170
     0
171
     0
290
     0
174
     0
 93
        1
 44
-50.0
173
     0
291
     1
 45
0.0
1001
ACAD
1000
AcDbSavedByObjectVersion
1070
     0
  0
VISUALSTYLE
  5
39
102
{ACAD_REACTORS
330
2A
102
}
102
{ACAD_XDICTIONARY
360
4D6
102
}
330
2A
100
AcDbVisualStyle
  2
Facepattern
 70
    15
 71
     2
 72
     2
 73
     0
 90
        0
 40
-0.6
 41
-30.0
 62
     5
 63
     7
 74
     1
 91
        4
 64
     7
 65
   257
 75
     1
175
     1
 42
1.0
 92
        8
 66
     7
 43
1.0
 76
     1
 77
     6
 78
     2
 67
     7
 79
     5
170
     0
171
     0
290
     0
174
     0
 93
        1
 44
0.0
173
     0
291
     1
 45
0.0
1001
ACAD
1000
AcDbSavedByObjectVersion
1070
     0
  0
VISUALSTYLE
  5
2B
102
{ACAD_REACTORS
330
2A
102
}
102
{ACAD_XDICTIONARY
360
4BA
102
}
330
2A
100
AcDbVisualStyle
  2
Flat
 70
     0
 71
     2
 72
     1
 73
     1
 90
        2
 40
-0.6
 41
30.0
 62
     5
 63
     7
 74
     0
 91
        4
 64
     7
 65
   257
 75
     1
175
     1
 42
1.0
 92
        8
 66
     7
 43
1.0
 76
     1
 77
     6
 78
     2
 67
     7
 79
     5
170
     0
171
     0
290
     0
174
     0
 93
       13
 44
0.0
173
     0
291
     1
 45
0.0
1001
ACAD
1000
AcDbSavedByObjectVersion
1070
     0
  0
VISUALSTYLE
  5
2C
102
{ACAD_REACTORS
330
2A
102
}
102
{ACAD_XDICTIONARY
360
4BC
102
}
330
2A
100
AcDbVisualStyle
  2
FlatWithEdges
 70
     1
 71
     2
 72
     1
 73
     1
 90
        2
 40
-0.6
 41
30.0
 62
     5
 63
     7
 74
     1
 91
        4
 64
     7
 65
   257
 75
     1
175
     1
 42
1.0
 92
        0
 66
   257
 43
1.0
 76
     1
 77
     6
 78
     2
 67
     7
 79
     5
170
     0
171
     0
290
     0
174
     0
 93
       13
 44
0.0
173
     0
291
     1
 45
0.0
1001
ACAD
1000
AcDbSavedByObjectVersion
1070
     0
  0
VISUALSTYLE
  5
2D
102
{ACAD_REACTORS
330
2A
102
}
102
{ACAD_XDICTIONARY
360
4BE
102
}
330
2A
100
AcDbVisualStyle
  2
Gouraud
 70
     2
 71
     2
 72
     2
 73
     1
 90
        2
 40
-0.6
 41
30.0
 62
     5
 63
     7
 74
     0
 91
        4
 64
     7
 65
   257
 75
     1
175
     1
 42
1.0
 92
        0
 66
     7
 43
1.0
 76
     1
 77
     6
 78
     2
 67
     7
 79
     5
170
     0
171
     0
290
     0
174
     0
 93
       13
 44
0.0
173
     0
291
     1
 45
0.0
1001
ACAD
1000
AcDbSavedByObjectVersion
1070
     0
  0
VISUALSTYLE
  5
2E
102
{ACAD_REACTORS
330
2A
102
}
102
{ACAD_XDICTIONARY
360
4C0
102
}
330
2A
100
AcDbVisualStyle
  2
GouraudWithEdges
 70
     3
 71
     2
 72
     2
 73
     1
 90
        2
 40
-0.6
 41
30.0
 62
     5
 63
     7
 74
     1
 91
        4
 64
     7
 65
   257
 75
     1
175
     1
 42
1.0
 92
        0
 66
   257
 43
1.0
 76
     1
 77
     6
 78
     2
 67
     7
 79
     5
170
     0
171
     0
290
     0
174
     0
 93
       13
 44
0.0
173
     0
291
     1
 45
0.0
1001
ACAD
1000
AcDbSavedByObjectVersion
1070
     0
  0
VISUALSTYLE
  5
38
102
{ACAD_REACTORS
330
2A
102
}
102
{ACAD_XDICTIONARY
360
4D4
102
}
330
2A
100
AcDbVisualStyle
  2
Linepattern
 70
    14
 71
     2
 72
     2
 73
     0
 90
        0
 40
-0.6
 41
-30.0
 62
     5
 63
     7
 74
     1
 91
        4
 64
     7
 65
   257
 75
     7
175
     7
 42
1.0
 92
        8
 66
     7
 43
1.0
 76
     1
 77
     6
 78
     2
 67
     7
 79
     5
170
     0
171
     0
290
     0
174
     0
 93
        1
 44
0.0
173
     0
291
     1
 45
0.0
1001
ACAD
1000
AcDbSavedByObjectVersion
1070
     0
  0
VISUALSTYLE
  5
33
102
{ACAD_REACTORS
330
2A
102
}
102
{ACAD_XDICTIONARY
360
4CA
102
}
330
2A
100
AcDbVisualStyle
  2
Realistic
 70
     8
 71
     2
 72
     2
 73
     0
 90
        0
 40
-0.6
 41
-30.0
 62
     5
 63
     7
 74
     1
 91
        0
 64
     7
 65
   257
 75
     1
175
     1
 42
1.0
 92
        8
 66
     8
 43
1.0
 76
     1
 77
     6
 78
     2
 67
     7
 79
     5
170
     0
171
     0
290
     0
174
     0
 93
       13
 44
0.0
173
     0
291
     0
 45
0.0
1001
ACAD
1000
AcDbSavedByObjectVersion
1070
     0
  0
VISUALSTYLE
  5
37
102
{ACAD_REACTORS
330
2A
102
}
102
{ACAD_XDICTIONARY
360
4D2
102
}
330
2A
100
AcDbVisualStyle
  2
Thicken
 70
    13
 71
     2
 72
     2
 73
     0
 90
        0
 40
-0.6
 41
-30.0
 62
     5
 63
     7
 74
     1
 91
        4
 64
     7
 65
   257
 75
     1
175
     1
 42
1.0
 92
       12
 66
     7
 43
1.0
 76
     1
 77
     6
 78
     2
 67
     7
 79
     5
170
     0
171
     0
290
     0
174
     0
 93
        1
 44
0.0
173
     0
291
     1
 45
0.0
1001
ACAD
1000
AcDbSavedByObjectVersion
1070
     0
  0
DICTIONARYVAR
  5
4B8
102
{ACAD_REACTORS
330
4B5
102
}
330
4B5
100
DictionaryVariables
280
     0
  1
2
  0
DICTIONARYVAR
  5
4B9
102
{ACAD_REACTORS
330
4B5
102
}
330
4B5
100
DictionaryVariables
280
     0
  1
1
  0
DICTIONARY
  5
4DC
330
3D
100
AcDbDictionary
280
     1
281
     1
  3
ACAD_XREC_ROUNDTRIP
360
4DD
  0
DICTIONARY
  5
4DA
330
3C
100
AcDbDictionary
280
     1
281
     1
  3
ACAD_XREC_ROUNDTRIP
360
4DB
  0
DICTIONARY
  5
4DE
330
3E
100
AcDbDictionary
280
     1
281
     1
  3
ACAD_XREC_ROUNDTRIP
360
4DF
  0
DICTIONARY
  5
4C2
330
2F
100
AcDbDictionary
280
     1
281
     1
  3
ACAD_XREC_ROUNDTRIP
360
4C3
  0
DICTIONARY
  5
4C6
330
31
100
AcDbDictionary
280
     1
281
     1
  3
ACAD_XREC_ROUNDTRIP
360
4C7
  0
DICTIONARY
  5
4C4
330
30
100
AcDbDictionary
280
     1
281
     1
  3
ACAD_XREC_ROUNDTRIP
360
4C5
  0
DICTIONARY
  5
4C8
330
32
100
AcDbDictionary
280
     1
281
     1
  3
ACAD_XREC_ROUNDTRIP
360
4C9
  0
DICTIONARY
  5
4D0
330
36
100
AcDbDictionary
280
     1
281
     1
  3
ACAD_XREC_ROUNDTRIP
360
4D1
  0
DICTIONARY
  5
4D8
330
3A
100
AcDbDictionary
280
     1
281
     1
  3
ACAD_XREC_ROUNDTRIP
360
4D9
  0
DICTIONARY
  5
4CC
330
34
100
AcDbDictionary
280
     1
281
     1
  3
ACAD_XREC_ROUNDTRIP
360
4CD
  0
DICTIONARY
  5
4CE
330
35
100
AcDbDictionary
280
     1
281
     1
  3
ACAD_XREC_ROUNDTRIP
360
4CF
  0
DICTIONARY
  5
4D6
330
39
100
AcDbDictionary
280
     1
281
     1
  3
ACAD_XREC_ROUNDTRIP
360
4D7
  0
DICTIONARY
  5
4BA
330
2B
100
AcDbDictionary
280
     1
281
     1
  3
ACAD_XREC_ROUNDTRIP
360
4BB
  0
DICTIONARY
  5
4BC
330
2C
100
AcDbDictionary
280
     1
281
     1
  3
ACAD_XREC_ROUNDTRIP
360
4BD
  0
DICTIONARY
  5
4BE
330
2D
100
AcDbDictionary
280
     1
281
     1
  3
ACAD_XREC_ROUNDTRIP
360
4BF
  0
DICTIONARY
  5
4C0
330
2E
100
AcDbDictionary
280
     1
281
     1
  3
ACAD_XREC_ROUNDTRIP
360
4C1
  0
DICTIONARY
  5
4D4
330
38
100
AcDbDictionary
280
     1
281
     1
  3
ACAD_XREC_ROUNDTRIP
360
4D5
  0
DICTIONARY
  5
4CA
330
33
100
AcDbDictionary
280
     1
281
     1
  3
ACAD_XREC_ROUNDTRIP
360
4CB
  0
DICTIONARY
  5
4D2
330
37
100
AcDbDictionary
280
     1
281
     1
  3
ACAD_XREC_ROUNDTRIP
360
4D3
  0
XRECORD
  5
4DD
102
{ACAD_REACTORS
330
4DC
102
}
330
4DC
100
AcDbXrecord
280
     1
102
MATERIAL
148
0.0
149
0.0
149
0.0
 93
        0
 94
      127
282
     0
 72
     1
 77
     1
171
     1
175
     1
179
     1
273
     0
  0
XRECORD
  5
4DB
102
{ACAD_REACTORS
330
4DA
102
}
330
4DA
100
AcDbXrecord
280
     1
102
MATERIAL
148
0.0
149
0.0
149
0.0
 93
        0
 94
      127
282
     0
 72
     1
 77
     1
171
     1
175
     1
179
     1
273
     0
  0
XRECORD
  5
4DF
102
{ACAD_REACTORS
330
4DE
102
}
330
4DE
100
AcDbXrecord
280
     1
102
MATERIAL
148
0.0
149
0.0
149
0.0
 93
        0
 94
      127
282
     0
 72
     1
 77
     1
171
     1
175
     1
179
     1
273
     0
  0
XRECORD
  5
4C3
102
{ACAD_REACTORS
330
4C2
102
}
330
4C2
100
AcDbXrecord
280
     1
102
RTVSPropertyOp0
 70
     1
102
RTVSPropertyOp1
 70
     1
102
RTVSPropertyOp2
 70
     1
102
RTVSPropertyOp3
 70
     1
102
RTVSPropertyOp4
 70
     1
102
RTVSPropertyOp5
 70
     1
102
RTVSPropertyOp6
 70
     1
102
RTVSPropertyOp7
 70
     1
102
RTVSPropertyOp8
 70
     1
102
RTVSPropertyOp9
 70
     1
102
RTVSPropertyOp10
 70
     1
102
RTVSPropertyOp11
 70
     1
102
RTVSPropertyOp12
 70
     1
102
RTVSPropertyOp13
 70
     1
102
RTVSPropertyOp14
 70
     1
102
RTVSPropertyOp15
 70
     1
102
RTVSPropertyOp16
 70
     1
102
RTVSPropertyOp17
 70
     1
102
RTVSPropertyOp18
 70
     1
102
RTVSPropertyOp19
 70
     1
102
RTVSPropertyOp20
 70
     1
102
RTVSPropertyOp21
 70
     1
102
RTVSPropertyOp22
 70
     1
102
RTVSPropertyOp23
 70
     1
102
RTVSPropertyOp24
 70
     1
102
RTVSPropertyOp25
 70
     1
102
RTVSPropertyOp26
 70
     1
102
RTVSPropertyOp27
 70
     1
102
RTVSPropertyOp28
 70
     1
102
RTVSPropertyOp29
 70
     1
102
RTVSPropertyOp30
 70
     1
102
RTVSPropertyOp31
 70
     1
102
RTVSPropertyOp32
 70
     1
  0
XRECORD
  5
4C7
102
{ACAD_REACTORS
330
4C6
102
}
330
4C6
100
AcDbXrecord
280
     1
102
RTVSPropertyOp0
 70
     1
102
RTVSPropertyOp1
 70
     1
102
RTVSPropertyOp2
 70
     1
102
RTVSPropertyOp3
 70
     1
102
RTVSPropertyOp4
 70
     1
102
RTVSPropertyOp5
 70
     1
102
RTVSPropertyOp6
 70
     1
102
RTVSPropertyOp7
 70
     1
102
RTVSPropertyOp8
 70
     1
102
RTVSPropertyOp9
 70
     1
102
RTVSPropertyOp10
 70
     1
102
RTVSPropertyOp11
 70
     1
102
RTVSPropertyOp12
 70
     1
102
RTVSPropertyOp13
 70
     1
102
RTVSPropertyOp14
 70
     1
102
RTVSPropertyOp15
 70
     1
102
RTVSPropertyOp16
 70
     1
102
RTVSPropertyOp17
 70
     1
102
RTVSPropertyOp18
 70
     1
102
RTVSPropertyOp19
 70
     1
102
RTVSPropertyOp20
 70
     1
102
RTVSPropertyOp21
 70
     1
102
RTVSPropertyOp22
 70
     1
102
RTVSPropertyOp23
 70
     1
102
RTVSPropertyOp24
 70
     1
102
RTVSPropertyOp25
 70
     1
102
RTVSPropertyOp26
 70
     1
102
RTVSPropertyOp27
 70
     1
102
RTVSPropertyOp28
 70
     1
102
RTVSPropertyOp29
 70
     1
102
RTVSPropertyOp30
 70
     1
102
RTVSPropertyOp31
 70
     1
102
RTVSPropertyOp32
 70
     1
  0
XRECORD
  5
4C5
102
{ACAD_REACTORS
330
4C4
102
}
330
4C4
100
AcDbXrecord
280
     1
102
RTVSPropertyOp0
 70
     1
102
RTVSPropertyOp1
 70
     1
102
RTVSPropertyOp2
 70
     1
102
RTVSPropertyOp3
 70
     1
102
RTVSPropertyOp4
 70
     1
102
RTVSPropertyOp5
 70
     1
102
RTVSPropertyOp6
 70
     1
102
RTVSPropertyOp7
 70
     1
102
RTVSPropertyOp8
 70
     1
102
RTVSPropertyOp9
 70
     1
102
RTVSPropertyOp10
 70
     1
102
RTVSPropertyOp11
 70
     1
102
RTVSPropertyOp12
 70
     1
102
RTVSPropertyOp13
 70
     1
102
RTVSPropertyOp14
 70
     1
102
RTVSPropertyOp15
 70
     1
102
RTVSPropertyOp16
 70
     1
102
RTVSPropertyOp17
 70
     1
102
RTVSPropertyOp18
 70
     1
102
RTVSPropertyOp19
 70
     1
102
RTVSPropertyOp20
 70
     1
102
RTVSPropertyOp21
 70
     1
102
RTVSPropertyOp22
 70
     1
102
RTVSPropertyOp23
 70
     1
102
RTVSPropertyOp24
 70
     1
102
RTVSPropertyOp25
 70
     1
102
RTVSPropertyOp26
 70
     1
102
RTVSPropertyOp27
 70
     1
102
RTVSPropertyOp28
 70
     1
102
RTVSPropertyOp29
 70
     1
102
RTVSPropertyOp30
 70
     1
102
RTVSPropertyOp31
 70
     1
102
RTVSPropertyOp32
 70
     1
  0
XRECORD
  5
4C9
102
{ACAD_REACTORS
330
4C8
102
}
330
4C8
100
AcDbXrecord
280
     1
102
RTVSPropertyOp0
 70
     1
102
RTVSPropertyOp1
 70
     1
102
RTVSPropertyOp2
 70
     1
102
RTVSPropertyOp3
 70
     1
102
RTVSPropertyOp4
 70
     1
102
RTVSPropertyOp5
 70
     1
102
RTVSPropertyOp6
 70
     1
102
RTVSPropertyOp7
 70
     1
102
RTVSPropertyOp8
 70
     1
102
RTVSPropertyOp9
 70
     1
102
RTVSPropertyOp10
 70
     1
102
RTVSPropertyOp11
 70
     1
102
RTVSPropertyOp12
 70
     1
102
RTVSPropertyOp13
 70
     1
102
RTVSPropertyOp14
 70
     1
102
RTVSPropertyOp15
 70
     1
102
RTVSPropertyOp16
 70
     1
102
RTVSPropertyOp17
 70
     1
102
RTVSPropertyOp18
 70
     1
102
RTVSPropertyOp19
 70
     1
102
RTVSPropertyOp20
 70
     1
102
RTVSPropertyOp21
 70
     1
102
RTVSPropertyOp22
 70
     1
102
RTVSPropertyOp23
 70
     1
102
RTVSPropertyOp24
 70
     1
102
RTVSPropertyOp25
 70
     1
102
RTVSPropertyOp26
 70
     1
102
RTVSPropertyOp27
 70
     1
102
RTVSPropertyOp28
 70
     1
102
RTVSPropertyOp29
 70
     1
102
RTVSPropertyOp30
 70
     1
102
RTVSPropertyOp31
 70
     1
102
RTVSPropertyOp32
 70
     1
  0
XRECORD
  5
4D1
102
{ACAD_REACTORS
330
4D0
102
}
330
4D0
100
AcDbXrecord
280
     1
102
RTVSPropertyOp0
 70
     1
102
RTVSPropertyOp1
 70
     1
102
RTVSPropertyOp2
 70
     1
102
RTVSPropertyOp3
 70
     1
102
RTVSPropertyOp4
 70
     1
102
RTVSPropertyOp5
 70
     1
102
RTVSPropertyOp6
 70
     1
102
RTVSPropertyOp7
 70
     1
102
RTVSPropertyOp8
 70
     1
102
RTVSPropertyOp9
 70
     1
102
RTVSPropertyOp10
 70
     1
102
RTVSPropertyOp11
 70
     1
102
RTVSPropertyOp12
 70
     1
102
RTVSPropertyOp13
 70
     1
102
RTVSPropertyOp14
 70
     1
102
RTVSPropertyOp15
 70
     1
102
RTVSPropertyOp16
 70
     1
102
RTVSPropertyOp17
 70
     1
102
RTVSPropertyOp18
 70
     1
102
RTVSPropertyOp19
 70
     1
102
RTVSPropertyOp20
 70
     1
102
RTVSPropertyOp21
 70
     1
102
RTVSPropertyOp22
 70
     1
102
RTVSPropertyOp23
 70
     1
102
RTVSPropertyOp24
 70
     1
102
RTVSPropertyOp25
 70
     1
102
RTVSPropertyOp26
 70
     1
102
RTVSPropertyOp27
 70
     1
102
RTVSPropertyOp28
 70
     1
102
RTVSPropertyOp29
 70
     1
102
RTVSPropertyOp30
 70
     1
102
RTVSPropertyOp31
 70
     1
102
RTVSPropertyOp32
 70
     1
  0
XRECORD
  5
4D9
102
{ACAD_REACTORS
330
4D8
102
}
330
4D8
100
AcDbXrecord
280
     1
102
RTVSPropertyOp0
 70
     1
102
RTVSPropertyOp1
 70
     1
102
RTVSPropertyOp2
 70
     1
102
RTVSPropertyOp3
 70
     1
102
RTVSPropertyOp4
 70
     1
102
RTVSPropertyOp5
 70
     1
102
RTVSPropertyOp6
 70
     1
102
RTVSPropertyOp7
 70
     1
102
RTVSPropertyOp8
 70
     1
102
RTVSPropertyOp9
 70
     1
102
RTVSPropertyOp10
 70
     1
102
RTVSPropertyOp11
 70
     1
102
RTVSPropertyOp12
 70
     1
102
RTVSPropertyOp13
 70
     1
102
RTVSPropertyOp14
 70
     1
102
RTVSPropertyOp15
 70
     1
102
RTVSPropertyOp16
 70
     1
102
RTVSPropertyOp17
 70
     1
102
RTVSPropertyOp18
 70
     1
102
RTVSPropertyOp19
 70
     1
102
RTVSPropertyOp20
 70
     1
102
RTVSPropertyOp21
 70
     1
102
RTVSPropertyOp22
 70
     1
102
RTVSPropertyOp23
 70
     1
102
RTVSPropertyOp24
 70
     1
102
RTVSPropertyOp25
 70
     1
102
RTVSPropertyOp26
 70
     1
102
RTVSPropertyOp27
 70
     1
102
RTVSPropertyOp28
 70
     1
102
RTVSPropertyOp29
 70
     1
102
RTVSPropertyOp30
 70
     1
102
RTVSPropertyOp31
 70
     1
102
RTVSPropertyOp32
 70
     1
  0
XRECORD
  5
4CD
102
{ACAD_REACTORS
330
4CC
102
}
330
4CC
100
AcDbXrecord
280
     1
102
RTVSPropertyOp0
 70
     1
102
RTVSPropertyOp1
 70
     1
102
RTVSPropertyOp2
 70
     1
102
RTVSPropertyOp3
 70
     1
102
RTVSPropertyOp4
 70
     1
102
RTVSPropertyOp5
 70
     1
102
RTVSPropertyOp6
 70
     1
102
RTVSPropertyOp7
 70
     1
102
RTVSPropertyOp8
 70
     1
102
RTVSPropertyOp9
 70
     1
102
RTVSPropertyOp10
 70
     1
102
RTVSPropertyOp11
 70
     1
102
RTVSPropertyOp12
 70
     1
102
RTVSPropertyOp13
 70
     1
102
RTVSPropertyOp14
 70
     1
102
RTVSPropertyOp15
 70
     1
102
RTVSPropertyOp16
 70
     1
102
RTVSPropertyOp17
 70
     1
102
RTVSPropertyOp18
 70
     1
102
RTVSPropertyOp19
 70
     1
102
RTVSPropertyOp20
 70
     1
102
RTVSPropertyOp21
 70
     1
102
RTVSPropertyOp22
 70
     1
102
RTVSPropertyOp23
 70
     1
102
RTVSPropertyOp24
 70
     1
102
RTVSPropertyOp25
 70
     1
102
RTVSPropertyOp26
 70
     1
102
RTVSPropertyOp27
 70
     1
102
RTVSPropertyOp28
 70
     1
102
RTVSPropertyOp29
 70
     1
102
RTVSPropertyOp30
 70
     1
102
RTVSPropertyOp31
 70
     1
102
RTVSPropertyOp32
 70
     1
  0
XRECORD
  5
4CF
102
{ACAD_REACTORS
330
4CE
102
}
330
4CE
100
AcDbXrecord
280
     1
102
RTVSPropertyOp0
 70
     1
102
RTVSPropertyOp1
 70
     1
102
RTVSPropertyOp2
 70
     1
102
RTVSPropertyOp3
 70
     1
102
RTVSPropertyOp4
 70
     1
102
RTVSPropertyOp5
 70
     1
102
RTVSPropertyOp6
 70
     1
102
RTVSPropertyOp7
 70
     1
102
RTVSPropertyOp8
 70
     1
102
RTVSPropertyOp9
 70
     1
102
RTVSPropertyOp10
 70
     1
102
RTVSPropertyOp11
 70
     1
102
RTVSPropertyOp12
 70
     1
102
RTVSPropertyOp13
 70
     1
102
RTVSPropertyOp14
 70
     1
102
RTVSPropertyOp15
 70
     1
102
RTVSPropertyOp16
 70
     1
102
RTVSPropertyOp17
 70
     1
102
RTVSPropertyOp18
 70
     1
102
RTVSPropertyOp19
 70
     1
102
RTVSPropertyOp20
 70
     1
102
RTVSPropertyOp21
 70
     1
102
RTVSPropertyOp22
 70
     1
102
RTVSPropertyOp23
 70
     1
102
RTVSPropertyOp24
 70
     1
102
RTVSPropertyOp25
 70
     1
102
RTVSPropertyOp26
 70
     1
102
RTVSPropertyOp27
 70
     1
102
RTVSPropertyOp28
 70
     1
102
RTVSPropertyOp29
 70
     1
102
RTVSPropertyOp30
 70
     1
102
RTVSPropertyOp31
 70
     1
102
RTVSPropertyOp32
 70
     1
  0
XRECORD
  5
4D7
102
{ACAD_REACTORS
330
4D6
102
}
330
4D6
100
AcDbXrecord
280
     1
102
RTVSPropertyOp0
 70
     1
102
RTVSPropertyOp1
 70
     1
102
RTVSPropertyOp2
 70
     1
102
RTVSPropertyOp3
 70
     1
102
RTVSPropertyOp4
 70
     1
102
RTVSPropertyOp5
 70
     1
102
RTVSPropertyOp6
 70
     1
102
RTVSPropertyOp7
 70
     1
102
RTVSPropertyOp8
 70
     1
102
RTVSPropertyOp9
 70
     1
102
RTVSPropertyOp10
 70
     1
102
RTVSPropertyOp11
 70
     1
102
RTVSPropertyOp12
 70
     1
102
RTVSPropertyOp13
 70
     1
102
RTVSPropertyOp14
 70
     1
102
RTVSPropertyOp15
 70
     1
102
RTVSPropertyOp16
 70
     1
102
RTVSPropertyOp17
 70
     1
102
RTVSPropertyOp18
 70
     1
102
RTVSPropertyOp19
 70
     1
102
RTVSPropertyOp20
 70
     1
102
RTVSPropertyOp21
 70
     1
102
RTVSPropertyOp22
 70
     1
102
RTVSPropertyOp23
 70
     1
102
RTVSPropertyOp24
 70
     1
102
RTVSPropertyOp25
 70
     1
102
RTVSPropertyOp26
 70
     1
102
RTVSPropertyOp27
 70
     1
102
RTVSPropertyOp28
 70
     1
102
RTVSPropertyOp29
 70
     1
102
RTVSPropertyOp30
 70
     1
102
RTVSPropertyOp31
 70
     1
102
RTVSPropertyOp32
 70
     1
  0
XRECORD
  5
4BB
102
{ACAD_REACTORS
330
4BA
102
}
330
4BA
100
AcDbXrecord
280
     1
102
RTVSPropertyOp0
 70
     1
102
RTVSPropertyOp1
 70
     1
102
RTVSPropertyOp2
 70
     1
102
RTVSPropertyOp3
 70
     1
102
RTVSPropertyOp4
 70
     1
102
RTVSPropertyOp5
 70
     1
102
RTVSPropertyOp6
 70
     1
102
RTVSPropertyOp7
 70
     1
102
RTVSPropertyOp8
 70
     1
102
RTVSPropertyOp9
 70
     1
102
RTVSPropertyOp10
 70
     1
102
RTVSPropertyOp11
 70
     1
102
RTVSPropertyOp12
 70
     1
102
RTVSPropertyOp13
 70
     1
102
RTVSPropertyOp14
 70
     1
102
RTVSPropertyOp15
 70
     1
102
RTVSPropertyOp16
 70
     1
102
RTVSPropertyOp17
 70
     1
102
RTVSPropertyOp18
 70
     1
102
RTVSPropertyOp19
 70
     1
102
RTVSPropertyOp20
 70
     1
102
RTVSPropertyOp21
 70
     1
102
RTVSPropertyOp22
 70
     1
102
RTVSPropertyOp23
 70
     1
102
RTVSPropertyOp24
 70
     1
102
RTVSPropertyOp25
 70
     1
102
RTVSPropertyOp26
 70
     1
102
RTVSPropertyOp27
 70
     1
102
RTVSPropertyOp28
 70
     1
102
RTVSPropertyOp29
 70
     1
102
RTVSPropertyOp30
 70
     1
102
RTVSPropertyOp31
 70
     1
102
RTVSPropertyOp32
 70
     1
  0
XRECORD
  5
4BD
102
{ACAD_REACTORS
330
4BC
102
}
330
4BC
100
AcDbXrecord
280
     1
102
RTVSPropertyOp0
 70
     1
102
RTVSPropertyOp1
 70
     1
102
RTVSPropertyOp2
 70
     1
102
RTVSPropertyOp3
 70
     1
102
RTVSPropertyOp4
 70
     1
102
RTVSPropertyOp5
 70
     1
102
RTVSPropertyOp6
 70
     1
102
RTVSPropertyOp7
 70
     1
102
RTVSPropertyOp8
 70
     1
102
RTVSPropertyOp9
 70
     1
102
RTVSPropertyOp10
 70
     1
102
RTVSPropertyOp11
 70
     1
102
RTVSPropertyOp12
 70
     1
102
RTVSPropertyOp13
 70
     1
102
RTVSPropertyOp14
 70
     1
102
RTVSPropertyOp15
 70
     1
102
RTVSPropertyOp16
 70
     1
102
RTVSPropertyOp17
 70
     1
102
RTVSPropertyOp18
 70
     1
102
RTVSPropertyOp19
 70
     1
102
RTVSPropertyOp20
 70
     1
102
RTVSPropertyOp21
 70
     1
102
RTVSPropertyOp22
 70
     1
102
RTVSPropertyOp23
 70
     1
102
RTVSPropertyOp24
 70
     1
102
RTVSPropertyOp25
 70
     1
102
RTVSPropertyOp26
 70
     1
102
RTVSPropertyOp27
 70
     1
102
RTVSPropertyOp28
 70
     1
102
RTVSPropertyOp29
 70
     1
102
RTVSPropertyOp30
 70
     1
102
RTVSPropertyOp31
 70
     1
102
RTVSPropertyOp32
 70
     1
  0
XRECORD
  5
4BF
102
{ACAD_REACTORS
330
4BE
102
}
330
4BE
100
AcDbXrecord
280
     1
102
RTVSPropertyOp0
 70
     1
102
RTVSPropertyOp1
 70
     1
102
RTVSPropertyOp2
 70
     1
102
RTVSPropertyOp3
 70
     1
102
RTVSPropertyOp4
 70
     1
102
RTVSPropertyOp5
 70
     1
102
RTVSPropertyOp6
 70
     1
102
RTVSPropertyOp7
 70
     1
102
RTVSPropertyOp8
 70
     1
102
RTVSPropertyOp9
 70
     1
102
RTVSPropertyOp10
 70
     1
102
RTVSPropertyOp11
 70
     1
102
RTVSPropertyOp12
 70
     1
102
RTVSPropertyOp13
 70
     1
102
RTVSPropertyOp14
 70
     1
102
RTVSPropertyOp15
 70
     1
102
RTVSPropertyOp16
 70
     1
102
RTVSPropertyOp17
 70
     1
102
RTVSPropertyOp18
 70
     1
102
RTVSPropertyOp19
 70
     1
102
RTVSPropertyOp20
 70
     1
102
RTVSPropertyOp21
 70
     1
102
RTVSPropertyOp22
 70
     1
102
RTVSPropertyOp23
 70
     1
102
RTVSPropertyOp24
 70
     1
102
RTVSPropertyOp25
 70
     1
102
RTVSPropertyOp26
 70
     1
102
RTVSPropertyOp27
 70
     1
102
RTVSPropertyOp28
 70
     1
102
RTVSPropertyOp29
 70
     1
102
RTVSPropertyOp30
 70
     1
102
RTVSPropertyOp31
 70
     1
102
RTVSPropertyOp32
 70
     1
  0
XRECORD
  5
4C1
102
{ACAD_REACTORS
330
4C0
102
}
330
4C0
100
AcDbXrecord
280
     1
102
RTVSPropertyOp0
 70
     1
102
RTVSPropertyOp1
 70
     1
102
RTVSPropertyOp2
 70
     1
102
RTVSPropertyOp3
 70
     1
102
RTVSPropertyOp4
 70
     1
102
RTVSPropertyOp5
 70
     1
102
RTVSPropertyOp6
 70
     1
102
RTVSPropertyOp7
 70
     1
102
RTVSPropertyOp8
 70
     1
102
RTVSPropertyOp9
 70
     1
102
RTVSPropertyOp10
 70
     1
102
RTVSPropertyOp11
 70
     1
102
RTVSPropertyOp12
 70
     1
102
RTVSPropertyOp13
 70
     1
102
RTVSPropertyOp14
 70
     1
102
RTVSPropertyOp15
 70
     1
102
RTVSPropertyOp16
 70
     1
102
RTVSPropertyOp17
 70
     1
102
RTVSPropertyOp18
 70
     1
102
RTVSPropertyOp19
 70
     1
102
RTVSPropertyOp20
 70
     1
102
RTVSPropertyOp21
 70
     1
102
RTVSPropertyOp22
 70
     1
102
RTVSPropertyOp23
 70
     1
102
RTVSPropertyOp24
 70
     1
102
RTVSPropertyOp25
 70
     1
102
RTVSPropertyOp26
 70
     1
102
RTVSPropertyOp27
 70
     1
102
RTVSPropertyOp28
 70
     1
102
RTVSPropertyOp29
 70
     1
102
RTVSPropertyOp30
 70
     1
102
RTVSPropertyOp31
 70
     1
102
RTVSPropertyOp32
 70
     1
  0
XRECORD
  5
4D5
102
{ACAD_REACTORS
330
4D4
102
}
330
4D4
100
AcDbXrecord
280
     1
102
RTVSPropertyOp0
 70
     1
102
RTVSPropertyOp1
 70
     1
102
RTVSPropertyOp2
 70
     1
102
RTVSPropertyOp3
 70
     1
102
RTVSPropertyOp4
 70
     1
102
RTVSPropertyOp5
 70
     1
102
RTVSPropertyOp6
 70
     1
102
RTVSPropertyOp7
 70
     1
102
RTVSPropertyOp8
 70
     1
102
RTVSPropertyOp9
 70
     1
102
RTVSPropertyOp10
 70
     1
102
RTVSPropertyOp11
 70
     1
102
RTVSPropertyOp12
 70
     1
102
RTVSPropertyOp13
 70
     1
102
RTVSPropertyOp14
 70
     1
102
RTVSPropertyOp15
 70
     1
102
RTVSPropertyOp16
 70
     1
102
RTVSPropertyOp17
 70
     1
102
RTVSPropertyOp18
 70
     1
102
RTVSPropertyOp19
 70
     1
102
RTVSPropertyOp20
 70
     1
102
RTVSPropertyOp21
 70
     1
102
RTVSPropertyOp22
 70
     1
102
RTVSPropertyOp23
 70
     1
102
RTVSPropertyOp24
 70
     1
102
RTVSPropertyOp25
 70
     1
102
RTVSPropertyOp26
 70
     1
102
RTVSPropertyOp27
 70
     1
102
RTVSPropertyOp28
 70
     1
102
RTVSPropertyOp29
 70
     1
102
RTVSPropertyOp30
 70
     1
102
RTVSPropertyOp31
 70
     1
102
RTVSPropertyOp32
 70
     1
  0
XRECORD
  5
4CB
102
{ACAD_REACTORS
330
4CA
102
}
330
4CA
100
AcDbXrecord
280
     1
102
RTVSPropertyOp0
 70
     1
102
RTVSPropertyOp1
 70
     1
102
RTVSPropertyOp2
 70
     1
102
RTVSPropertyOp3
 70
     1
102
RTVSPropertyOp4
 70
     1
102
RTVSPropertyOp5
 70
     1
102
RTVSPropertyOp6
 70
     1
102
RTVSPropertyOp7
 70
     1
102
RTVSPropertyOp8
 70
     1
102
RTVSPropertyOp9
 70
     1
102
RTVSPropertyOp10
 70
     1
102
RTVSPropertyOp11
 70
     1
102
RTVSPropertyOp12
 70
     1
102
RTVSPropertyOp13
 70
     1
102
RTVSPropertyOp14
 70
     1
102
RTVSPropertyOp15
 70
     1
102
RTVSPropertyOp16
 70
     1
102
RTVSPropertyOp17
 70
     1
102
RTVSPropertyOp18
 70
     1
102
RTVSPropertyOp19
 70
     1
102
RTVSPropertyOp20
 70
     1
102
RTVSPropertyOp21
 70
     1
102
RTVSPropertyOp22
 70
     1
102
RTVSPropertyOp23
 70
     1
102
RTVSPropertyOp24
 70
     1
102
RTVSPropertyOp25
 70
     1
102
RTVSPropertyOp26
 70
     1
102
RTVSPropertyOp27
 70
     1
102
RTVSPropertyOp28
 70
     1
102
RTVSPropertyOp29
 70
     1
102
RTVSPropertyOp30
 70
     1
102
RTVSPropertyOp31
 70
     1
102
RTVSPropertyOp32
 70
     1
  0
XRECORD
  5
4D3
102
{ACAD_REACTORS
330
4D2
102
}
330
4D2
100
AcDbXrecord
280
     1
102
RTVSPropertyOp0
 70
     1
102
RTVSPropertyOp1
 70
     1
102
RTVSPropertyOp2
 70
     1
102
RTVSPropertyOp3
 70
     1
102
RTVSPropertyOp4
 70
     1
102
RTVSPropertyOp5
 70
     1
102
RTVSPropertyOp6
 70
     1
102
RTVSPropertyOp7
 70
     1
102
RTVSPropertyOp8
 70
     1
102
RTVSPropertyOp9
 70
     1
102
RTVSPropertyOp10
 70
     1
102
RTVSPropertyOp11
 70
     1
102
RTVSPropertyOp12
 70
     1
102
RTVSPropertyOp13
 70
     1
102
RTVSPropertyOp14
 70
     1
102
RTVSPropertyOp15
 70
     1
102
RTVSPropertyOp16
 70
     1
102
RTVSPropertyOp17
 70
     1
102
RTVSPropertyOp18
 70
     1
102
RTVSPropertyOp19
 70
     1
102
RTVSPropertyOp20
 70
     1
102
RTVSPropertyOp21
 70
     1
102
RTVSPropertyOp22
 70
     1
102
RTVSPropertyOp23
 70
     1
102
RTVSPropertyOp24
 70
     1
102
RTVSPropertyOp25
 70
     1
102
RTVSPropertyOp26
 70
     1
102
RTVSPropertyOp27
 70
     1
102
RTVSPropertyOp28
 70
     1
102
RTVSPropertyOp29
 70
     1
102
RTVSPropertyOp30
 70
     1
102
RTVSPropertyOp31
 70
     1
102
RTVSPropertyOp32
 70
     1
  0
ENDSEC
  0
EOF
